<?xml version="1.0" standalone="no"?>
<!DOCTYPE svg PUBLIC "-//W3C//DTD SVG 1.1//EN" "http://www.w3.org/Graphics/SVG/1.1/DTD/svg11.dtd">
<svg xmlns="http://www.w3.org/2000/svg">
<defs >
<font id="Comfortaa" horiz-adv-x="641" ><font-face
    font-family="Comfortaa SemiBold"
    units-per-em="1000"
    panose-1="0 0 0 0 0 0 0 0 0 0"
    ascent="881"
    descent="-234"
    alphabetic="0" />
<glyph unicode=" " horiz-adv-x="293" />
<glyph unicode="!" horiz-adv-x="280" d="M115 182Q95 182 82 196T68 228V734Q68 754 81 767T115 781Q135 781 148 768T161 734V228Q161 209 147 196T115 182ZM115 0Q88 0 69 19T50 65Q50 93 69 112T115 131Q142 131 161 112T180 65Q180 38 161 19T115 0Z" />
<glyph unicode="&quot;" horiz-adv-x="273" d="M201 556Q186 556 176 566T165 592L154 735Q154 754 168 767T201 781Q220 781 233 768T247 735L238 592Q237 577 227 567T201 556ZM81 556Q65 556 55 566T43 592L34 734Q34 753 48 766T81 780Q99 780 112 767T126
734L117 592Q117 577 107 567T81 556Z" />
<glyph unicode="#" horiz-adv-x="720" d="M634 549Q653 549 664 540T674 511Q673 493 658 483T621 473H550L523 319H594Q615 319 625 309T635 283Q635 268 621 256T581 243H505L471 46Q467 25 454 13T420 0Q401 0 391 14T385 48L418 243H248L215 46Q211 27 198
14T165 0Q145 0 135 12T129 48L162 243H87Q68 243 57 252T47 277Q49 298 63 308T100 319H180L206 473H128Q109 473 98 481T86 507Q86 528 100 538T140 549H223L258 738Q262 758 274 771T308 784Q327 784 337 771T344 736L310 549H480L514 738Q517 757 530 770T564
784Q586 784 595 771T600 736L567 549H634ZM436 319L462 473H293L267 319H436Z" />
<glyph unicode="$" horiz-adv-x="621" d="M317 -10Q256 -10 202 7T107 57T48 135Q40 154 48 170T78 190Q93 194 107 186T130 161Q148 122 199 98T317 74Q363 74 400 89T460 134T483 207Q484 263 444 305T315 358Q241 366 186 395T102 471T72 575Q72 638 106 682T197
751T326 775Q384 775 428 759T503 713T556 646Q568 626 566 609T548 583Q533 572 515 578T487 601Q466 640 428 666T325 693Q253 694 208 664T162 574Q162 543 176 515T227 464T335 433Q447 420 510 363T574 210Q574 156 553 115T496 46T414 4T317 -10ZM324 -101Q311
-101 303 -93T294 -71V822Q294 836 302 844T324 852Q336 852 344 844T352 822V-71Q352 -84 344 -92T324 -101Z" />
<glyph unicode="%" horiz-adv-x="859" d="M164 0Q144 0 131 13T118 46Q118 65 129 77L664 763Q672 772 681 776T701 781Q721 781 734 768T748 734Q748 719 738 707L199 15Q185 0 164 0ZM229 385Q174 385 129 412T57 485T30 583Q30 637 57 682T129 754T229 781Q283
781 328 754T399 682T426 583Q426 529 400 485T328 413T229 385ZM229 477Q258 477 282 491T320 530T334 583Q334 612 320 636T281 674T229 689Q200 689 176 675T137 636T122 583Q122 555 136 531T175 492T229 477ZM634 0Q581 0 536 27T464 98T437 197Q437 252 464
296T535 368T635 395Q689 395 734 369T806 298T833 198Q833 143 806 99T734 27T634 0ZM635 92Q664 92 688 106T726 145T741 198Q741 226 727 250T688 288T635 303Q606 303 582 289T543 251T529 197Q529 169 543 145T581 107T635 92Z" />
<glyph unicode="&amp;" horiz-adv-x="727" d="M257 -11Q193 -11 146 12T72 79T45 180Q45 247 88 301T210 417L293 483Q342 522 359 555T378 625Q378 664 352 693T276 722Q231 722 203 695T175 632Q175 604 187 579T225 527L678 75Q692 60 694 47T682 19Q652 -10
623 19L165 477Q132 510 114 548T96 630Q96 677 119 714T184 774T276 796Q329 796 369 773T434 711T458 623Q457 584 444 552T402 490T332 426L251 363Q214 333 187 304T146 245T131 183Q131 127 164 97T257 67Q314 67 357 94T447 169L595 326Q609 340 621 343T648
333Q663 320 663 305T650 275L502 118Q450 60 391 25T257 -11Z" />
<glyph unicode="&apos;" horiz-adv-x="156" d="M81 556Q66 556 55 566T44 592L34 734Q34 754 48 767T80 780Q99 780 112 767T126 734L117 592Q117 577 107 567T81 556Z" />
<glyph unicode="(" horiz-adv-x="266" d="M200 -234Q186 -234 176 -227T156 -203Q99 -83 71 36T42 274Q42 394 70 513T156 749Q170 781 200 781Q220 781 233 767T246 734Q246 719 240 709Q133 492 133 273Q133 165 160 55T241 -164Q247 -176 247 -187Q247 -207
234 -220T200 -234Z" />
<glyph unicode=")" horiz-adv-x="266" d="M66 -234Q47 -234 34 -221T20 -187Q20 -176 26 -164Q78 -56 106 54T134 273Q134 492 27 709Q21 719 20 734Q20 753 33 767T66 781Q97 781 110 749Q168 632 196 513T225 274Q225 155 196 36T110 -203Q102 -220 92 -227T66 -234Z" />
<glyph unicode="*" horiz-adv-x="381" d="M123 485Q102 485 90 499T77 532Q77 543 82 552T98 568L148 608L86 612Q67 614 54 627T41 658Q41 680 55 692T87 705Q94 705 102 702T116 695L166 662L151 720Q150 724 149 727T148 734Q148 754 161 767T194 781Q214 781
227 768T240 734Q240 730 240 727T238 720L222 661L274 696Q286 705 301 705Q318 705 333 692T348 658Q348 640 336 627T303 612L240 608L290 570Q311 554 311 532Q311 513 298 499T259 485Q245 487 236 495T221 517L194 578L168 517Q163 501 151 493T123 485Z"
/>
<glyph unicode="+" horiz-adv-x="547" d="M273 112Q254 112 241 125T227 159V302H84Q65 302 52 315T38 348Q38 369 51 382T84 395H227V538Q227 557 241 570T273 584Q294 584 307 571T320 538V395H462Q482 395 495 382T509 348Q509 329 496 316T462 302H320V159Q320
139 307 126T273 112Z" />
<glyph unicode="," horiz-adv-x="238" d="M81 -169Q70 -169 64 -162T58 -145Q58 -127 68 -114T89 -84T100 -45Q100 -28 93 -17T75 4T58 25T50 55Q50 81 67 98T114 115Q148 115 167 90T188 22Q188 -9 179 -42T153 -104T118 -151T81 -169Z" />
<glyph unicode="-" horiz-adv-x="391" d="M83 228Q63 228 50 240T37 273Q37 294 50 306T83 319H310Q330 319 343 307T356 273Q356 253 343 241T310 228H83Z" />
<glyph unicode="." horiz-adv-x="230" d="M115 -16Q88 -16 69 3T50 49Q50 76 69 95T115 115Q142 115 161 96T180 49Q180 23 161 4T115 -16Z" />
<glyph unicode="/" horiz-adv-x="469" d="M84 -76Q58 -76 45 -56T42 -10L348 754Q353 767 365 774T391 782Q415 782 428 762T433 716L127 -49Q121 -63 109 -69T84 -76Z" />
<glyph unicode="0" horiz-adv-x="575" d="M287 0Q212 0 159 46T78 180T50 391Q50 514 78 601T159 735T287 782Q363 782 416 735T497 600T525 391Q525 270 498 183T417 48T287 0ZM287 94Q337 94 368 132T416 238T432 391Q432 476 416 543T368 650T287 689Q239 689
207 651T159 545T143 391Q143 305 159 238T207 133T287 94Z" />
<glyph unicode="1" horiz-adv-x="387" d="M240 0Q222 0 208 13T194 46V672L111 639Q96 633 84 633Q64 633 51 646T37 678Q37 693 44 705T67 722L222 777Q227 779 232 780T242 781Q263 781 275 768T287 734V46Q287 27 274 14T240 0Z" />
<glyph unicode="2" horiz-adv-x="585" d="M114 0Q94 0 81 13T67 46Q67 66 80 79L371 421Q400 453 415 485T431 545Q431 590 415 623T369 676T298 695Q258 695 226 675T176 620T158 545Q158 527 145 514T111 500Q92 500 79 513T65 545Q65 613 95 666T179 750T298
781Q365 781 415 752T493 670T521 545Q521 513 509 481T477 420T436 367L197 93H489Q509 93 522 79T536 46Q536 27 523 14T489 0H114Z" />
<glyph unicode="3" horiz-adv-x="594" d="M307 -2Q234 -2 177 29T88 114T55 236Q55 256 67 270T98 284Q116 284 128 270T140 236Q140 193 161 158T220 102T303 81Q373 81 415 120T457 226Q457 271 438 305T386 360T311 380Q292 380 279 393T265 427Q265 447 278
460T311 473Q342 473 369 489T414 531T432 590Q432 637 398 669T311 701Q271 701 239 686T189 644T170 586Q170 565 158 551T127 537Q109 537 97 550T85 584Q85 640 114 685T194 757T309 784Q368 784 415 759T489 689T517 590Q517 553 500 522T456 468T398 431Q450
414 483 384T533 313T549 225Q549 160 517 109T429 28T307 -2Z" />
<glyph unicode="4" horiz-adv-x="651" d="M450 0Q432 0 420 13T407 46V181H64Q44 181 32 193T19 223T27 254L415 762Q422 771 431 776T453 781Q472 781 484 768T496 734V264H564Q583 264 596 255T610 222Q610 206 597 194T564 181H496V46Q496 27 484 14T450 0ZM117
236L95 264H407V683L433 650L117 236Z" />
<glyph unicode="5" horiz-adv-x="628" d="M319 0Q246 0 189 33T99 124T65 255Q65 275 78 288T110 301Q131 301 144 288T158 255Q158 209 179 172T236 114T319 93Q365 93 401 114T459 172T480 255Q480 301 459 337T402 395T319 416H149Q129 416 116 429T103 463V734Q103
754 116 767T149 781H489Q508 781 521 767T535 735Q535 716 522 703T489 689H195V509H319Q392 509 449 476T539 385T573 255Q573 183 540 125T449 34T319 0Z" />
<glyph unicode="6" horiz-adv-x="580" d="M301 0Q232 0 179 30T95 114T65 236Q65 305 95 358T178 442T301 473Q369 473 422 443T505 359T535 236Q535 168 505 115T422 31T301 0ZM300 83Q343 83 376 102T428 157T448 236Q448 281 429 315T376 370T300 390Q257 390
224 370T172 316T153 236Q153 192 171 157T223 103T300 83ZM96 361L334 755Q350 780 376 780Q395 780 407 770T423 743T417 710L266 461L96 361Z" />
<glyph unicode="7" horiz-adv-x="555" d="M151 0Q132 0 119 13T105 46Q105 53 107 60T114 76L405 689H85Q65 689 52 702T39 735Q39 755 52 768T85 781H476Q495 781 508 768T522 735Q522 729 520 723T516 710L193 26Q179 0 151 0Z" />
<glyph unicode="8" horiz-adv-x="586" d="M293 -1Q227 -1 175 30T92 116T61 239Q61 305 91 357T174 439T293 469Q359 469 411 439T494 357T524 239Q524 171 494 117T411 31T293 -1ZM293 83Q333 83 364 103T414 159T433 239Q434 281 416 314T366 367T293 387Q253
387 221 368T171 315T153 239Q153 195 170 160T220 104T293 83ZM293 401Q237 401 193 426T123 493T97 590Q97 646 122 690T192 759T293 785Q350 786 394 761T463 692T488 590Q488 536 463 494T393 426T293 401ZM294 477Q323 477 347 493T385 535T399 593Q400 624
386 648T348 687T293 701Q248 701 218 670T187 593Q186 544 216 511T294 477Z" />
<glyph unicode="9" horiz-adv-x="580" d="M280 782Q349 782 402 752T485 668T515 546Q515 478 485 424T402 340T280 309Q212 309 159 339T75 424T45 546Q45 614 75 667T158 751T280 782ZM280 699Q237 699 204 680T152 626T133 546Q133 501 152 467T204 412T280
392Q323 392 356 412T409 466T428 546Q428 591 409 625T357 679T280 699ZM483 421L246 27Q230 2 204 2Q186 2 173 12T157 40T163 73L314 321L483 421Z" />
<glyph unicode=":" horiz-adv-x="195" d="M347 414Q321 414 302 433T282 479Q282 506 301 525T347 545Q374 545 393 526T412 479Q412 452 393 433T347 414ZM355 -16Q328 -16 309 3T290 49Q290 76 309 95T355 115Q382 115 401 96T420 49Q420 23 401 4T355 -16Z" />
<glyph unicode=";" horiz-adv-x="197" d="M81 -169Q70 -169 64 -162T58 -145Q58 -127 68 -114T89 -84T100 -45Q100 -28 93 -17T75 4T58 25T50 55Q50 81 67 98T114 115Q148 115 167 90T188 22Q188 -9 179 -42T153 -104T118 -151T81 -169ZM351 414Q325 414 306 433T286
479Q286 506 305 525T351 545Q378 545 397 526T416 479Q416 452 397 433T351 414Z" />
<glyph unicode="&lt;" horiz-adv-x="547" d="M440 82L63 308Q38 323 38 350Q38 373 63 391L440 617Q464 629 486 618T509 580Q509 552 487 538L136 330V373L487 162Q509 147 509 122Q509 103 498 91T471 76T440 82Z" />
<glyph unicode="=" horiz-adv-x="508" d="M84 416Q64 416 51 429T38 463Q38 483 51 496T84 509H425Q444 509 457 496T471 463Q471 443 458 430T425 416H84ZM84 189Q64 189 51 202T38 235Q38 256 51 269T84 282H425Q444 282 457 268T471 235Q471 216 458 203T425 189H84Z" />
<glyph unicode="&gt;" horiz-adv-x="547" d="M108 82Q94 73 78 76T50 91T38 122Q38 147 61 162L413 373V330L61 538Q38 552 38 580Q38 606 61 617T108 617L485 391Q509 373 509 350Q509 323 485 308L108 82Z" />
<glyph unicode="?" horiz-adv-x="547" d="M274 182Q254 182 241 195T227 229Q227 268 247 314T306 396Q335 421 360 446T401 502T417 580Q417 615 401 645T354 693T281 711Q232 711 199 692T148 640T131 561Q131 541 118 528T85 515Q65 515 52 528T38 561Q38 631
68 683T153 766T281 797Q347 797 398 769T478 692T508 579Q508 523 490 483T440 410T368 344Q340 320 330 286T320 229Q320 208 307 195T274 182ZM274 0Q247 0 228 19T209 65Q209 92 228 111T274 131Q301 131 320 112T339 65Q339 38 320 19T274 0Z" />
<glyph unicode="@" horiz-adv-x="1094" d="M547 -234Q436 -234 343 -197T182 -92T77 69T40 273Q40 384 77 477T182 638T343 743T547 780Q658 780 751 743T912 638T1017 477T1054 273Q1054 181 1029 110T959 -2T854 -43Q801 -43 767 -13T732 68V110Q713 77 682
51T614 11T540 -4Q461 -4 400 31T305 129T271 273Q271 355 306 417T404 515T547 551Q629 551 691 515T789 417T825 273V109Q825 81 834 67T863 52Q890 52 912 80T947 158T960 273Q960 364 930 439T845 570T714 656T547 686Q457 686 381 656T250 571T165 440T134
273Q134 183 164 107T250 -24T381 -109T547 -140Q589 -140 636 -130T717 -105Q748 -90 767 -101T787 -145Q787 -170 757 -190T672 -222T547 -234ZM547 91Q601 91 642 114T706 178T730 273Q730 327 707 368T642 432T547 456Q493 456 452 433T388 368T365 273Q365
220 388 179T452 114T547 91Z" />
<glyph unicode="A" horiz-adv-x="703" d="M64 0Q38 0 25 22T23 68L309 749Q322 781 353 781Q386 781 398 749L685 66Q695 42 682 21T642 0Q629 0 617 7T599 29L340 665H369L108 29Q102 14 90 7T64 0ZM122 177L159 256H556L592 177H122Z" />
<glyph unicode="B" horiz-adv-x="712" d="M149 0Q128 0 114 13T100 47V734Q100 755 113 768T147 781H388Q452 781 502 755T582 683T611 577Q611 526 584 486T510 423Q576 406 616 358T657 234Q657 165 625 113T537 30T407 0H149ZM194 88H407Q454 88 489 105T545
154T566 234Q566 278 546 308T490 354T407 370H194V88ZM194 458H388Q446 458 483 488T521 577Q521 635 484 664T388 693H194V458Z" />
<glyph unicode="C" horiz-adv-x="774" d="M450 -10Q369 -10 299 20T176 106T93 234T63 391Q63 474 92 546T175 674T298 760T450 791Q525 791 582 771T695 704Q703 698 706 691T710 676T706 661Q705 646 694 637T667 628T636 638Q598 671 556 688T450 705Q389 705
336 680T241 612T177 512T154 391Q154 325 177 269T241 169T335 101T450 77Q503 77 550 94T639 144Q655 156 671 155T698 142T709 110Q709 101 706 93T695 77Q643 32 581 11T450 -10Z" />
<glyph unicode="D" horiz-adv-x="778" d="M147 0Q127 0 114 13T100 47V734Q100 755 113 768T147 781H328Q414 781 484 753T607 672T687 548T716 391Q716 305 688 234T607 110T485 29T328 0H147ZM194 84H328Q415 84 481 123T586 232T625 391Q625 481 587 550T482
658T328 697H194V84Z" />
<glyph unicode="E" horiz-adv-x="697" d="M147 0Q127 0 114 13T100 47V734Q100 755 113 768T147 781H606Q626 781 639 769T652 736Q652 718 639 706T606 693H194V437H491Q512 437 524 425T537 393Q537 374 525 362T491 349H194V88H606Q626 88 639 76T652 45Q652
25 639 13T606 0H147Z" />
<glyph unicode="F" horiz-adv-x="625" d="M84 0Q65 0 51 13T37 47V734Q37 755 50 768T84 781H543Q564 781 576 769T589 736Q589 718 577 706T543 693H131V437H428Q449 437 462 425T475 393Q475 374 462 362T428 349H131V47Q131 27 118 14T84 0Z" />
<glyph unicode="G" horiz-adv-x="774" d="M450 -10Q369 -10 299 20T176 106T93 234T63 391Q63 474 92 546T175 674T298 760T450 791Q525 791 582 771T695 704Q703 698 706 691T710 676T706 661Q705 646 694 637T666 627T636 638Q598 671 556 688T450 705Q389 705
336 680T241 612T177 512T154 391Q154 325 177 269T241 169T335 101T450 77Q503 77 550 94T639 144Q655 156 671 155T698 142T709 110Q709 101 707 93T695 77Q643 31 581 11T450 -10ZM709 110L619 129V316H474Q454 316 441 328T427 358Q427 376 440 387T474 399H663Q684
399 696 386T709 353V110Z" />
<glyph unicode="H" horiz-adv-x="861" d="M147 0Q127 0 114 13T100 47V734Q100 755 113 768T147 781Q168 781 181 768T194 734V437H667V734Q667 755 680 768T714 781Q735 781 748 768T761 734V47Q761 27 748 14T714 0Q694 0 681 13T667 47V354H194V47Q194 27 181
14T147 0Z" />
<glyph unicode="I" horiz-adv-x="294" d="M147 0Q127 0 114 13T100 47V734Q100 755 113 768T147 781Q168 781 181 768T194 734V47Q194 27 181 14T147 0Z" />
<glyph unicode="J" horiz-adv-x="621" d="M283 -10Q214 -10 160 20T76 105T45 228Q45 248 58 261T92 275Q113 275 126 262T139 228Q139 184 158 150T209 96T283 76Q325 76 357 96T408 150T427 228V734Q427 755 440 768T474 781Q494 781 507 768T521 734V228Q521
159 490 105T406 21T283 -10Z" />
<glyph unicode="K" horiz-adv-x="662" d="M147 0Q128 0 114 13T100 47V734Q100 754 114 767T147 781Q167 781 180 768T194 734V419L538 763Q549 773 557 777T576 781Q599 781 609 768T617 736T601 701L338 438L605 75Q616 59 614 42T601 12T572 0Q546 0 533 20L273
373L194 294V47Q194 27 181 14T147 0Z" />
<glyph unicode="L" horiz-adv-x="639" d="M146 0Q127 0 114 13T100 47V734Q100 754 113 767T146 781Q166 781 179 768T193 734V92H567Q586 92 600 79T614 46Q614 27 600 14T567 0H146Z" />
<glyph unicode="M" horiz-adv-x="982" d="M147 0Q127 0 114 13T100 47V734Q100 755 113 768T147 781Q175 781 189 756L511 113H478L793 756Q808 781 835 781Q855 781 868 768T882 734V47Q882 27 868 14T835 0Q815 0 802 13T788 47V607L806 609L532 49Q517 25 491
25Q461 25 448 54L174 602L194 607V47Q194 27 181 14T147 0Z" />
<glyph unicode="N" horiz-adv-x="828" d="M146 0Q126 0 113 13T100 47V734Q100 755 113 768T146 781Q168 781 183 764L635 165V734Q635 755 648 768T682 781Q702 781 715 768T728 734V47Q728 27 715 14T682 0Q672 0 662 4T646 16L193 615V47Q193 27 180 14T146 0Z" />
<glyph unicode="O" horiz-adv-x="921" d="M461 -10Q373 -10 300 19T175 103T93 230T63 391Q63 478 92 551T174 678T300 761T461 791Q548 791 621 762T747 678T829 551T859 391Q859 303 830 230T747 103T621 20T461 -10ZM461 76Q528 76 584 100T681 166T745 266T768
391Q768 458 746 515T682 615T584 681T461 705Q394 705 338 682T241 615T177 515T154 391Q154 324 177 267T241 167T338 100T461 76Z" />
<glyph unicode="P" horiz-adv-x="619" d="M147 0Q127 0 114 13T100 47V734Q100 754 113 767T147 781H347Q422 781 479 748T569 658T601 524Q601 451 569 394T480 305T347 273H194V47Q194 27 181 14T147 0ZM194 361H347Q395 361 432 382T490 440T511 524Q511 574
490 612T432 671T347 693H194V361Z" />
<glyph unicode="Q" horiz-adv-x="921" d="M742 14L530 226Q516 240 516 258T530 290Q544 304 562 304T594 290L807 78Q820 63 820 46T807 14Q792 0 775 0T742 14ZM461 -10Q373 -10 300 19T175 103T93 230T63 391Q63 478 92 551T174 678T300 761T461 791Q548 791
621 762T747 678T829 551T859 391Q859 303 830 230T747 103T621 20T461 -10ZM461 76Q528 76 584 100T681 166T745 266T768 391Q768 458 746 515T682 615T584 681T461 705Q394 705 338 682T241 615T177 515T154 391Q154 324 177 267T241 167T338 100T461 76Z" />
<glyph unicode="R" horiz-adv-x="627" d="M147 0Q127 0 114 13T100 47V734Q100 755 113 768T147 781H330Q404 781 461 750T551 664T584 537Q584 469 552 416T462 333T330 303H194V47Q194 27 181 14T147 0ZM563 0Q550 0 540 5T522 23L338 319L430 345L600 72Q617
45 605 23T563 0ZM194 391H330Q378 391 414 409T472 461T493 537Q493 583 472 618T415 673T330 693H194V391Z" />
<glyph unicode="S" horiz-adv-x="678" d="M345 -10Q281 -10 225 9T126 64T64 146Q54 165 63 181T95 202Q112 206 128 198T152 172Q165 145 193 124T260 89T345 76Q395 76 435 92T500 138T525 213Q525 269 482 312T344 366Q223 379 154 439T85 587Q85 651 120 696T216
766T354 790Q412 790 457 773T536 727T594 659Q606 639 604 622T585 594Q567 584 548 590T518 613Q503 640 480 660T426 692T351 704Q275 705 226 675T177 583Q177 551 193 524T251 476T368 446Q489 432 553 373T617 216Q617 160 596 118T536 48T449 5T345 -10Z"
/>
<glyph unicode="T" horiz-adv-x="659" d="M329 0Q310 0 296 13T282 47V781H376V47Q376 27 363 14T329 0ZM58 695Q39 695 27 707T15 738Q15 757 27 769T58 781H600Q620 781 632 769T644 738Q644 719 632 707T600 695H58Z" />
<glyph unicode="U" horiz-adv-x="835" d="M421 -16Q327 -16 255 19T141 117T100 260V734Q100 754 113 767T147 781Q168 781 181 768T194 734V260Q194 204 223 162T303 95T421 70Q485 70 535 94T613 161T642 260V734Q642 754 655 767T689 781Q710 781 722 768T735
734V260Q735 180 695 118T584 20T421 -16Z" />
<glyph unicode="V" horiz-adv-x="729" d="M365 0Q335 0 322 30L27 710Q14 741 24 761T64 781Q95 781 107 752L371 119H356L623 752Q630 768 640 774T667 781Q694 781 704 761T704 717L407 30Q400 15 390 8T365 0Z" />
<glyph unicode="W" horiz-adv-x="938" d="M266 0Q250 0 238 10T219 38L17 715Q8 745 18 763T54 781Q69 781 81 773T100 745L278 122H256L423 735Q427 749 439 757T468 766Q482 766 495 759T512 735L680 122H659L839 750Q848 781 885 781Q910 781 918 762T919 715L717
39Q711 21 699 11T670 0Q653 0 641 11T623 38L457 665H481L314 39Q308 21 296 11T266 0Z" />
<glyph unicode="X" horiz-adv-x="713" d="M92 0Q71 0 60 13T49 43T60 76L315 420L357 455L588 766Q601 781 623 781Q642 781 653 769T665 740T655 707L411 379L372 345L125 14Q111 0 92 0ZM622 0Q611 0 602 4T586 17L347 349L312 376L74 707Q63 722 64 739T77
768T108 781Q131 781 142 766L369 452L403 425L655 76Q666 61 666 43T654 13T622 0Z" />
<glyph unicode="Y" horiz-adv-x="662" d="M330 0Q311 0 298 13T284 47V287L15 708Q3 726 6 743T21 770T52 781Q67 781 76 775T93 756L353 341H312L574 758Q582 769 592 775T616 781Q633 781 644 770T657 742T648 708L377 287V47Q377 27 364 14T330 0Z" />
<glyph unicode="Z" horiz-adv-x="735" d="M99 0Q78 0 66 13T53 44T62 76L562 697H107Q84 697 73 708T62 738Q61 756 74 768T108 781H634Q655 781 667 768T682 738T673 707L171 84H634Q655 84 668 72T681 42Q681 23 668 12T634 0H99Z" />
<glyph unicode="[" horiz-adv-x="314" d="M112 -234Q92 -234 79 -221T65 -187V734Q65 755 78 768T112 782H266Q287 782 300 769T314 734Q314 714 301 701T266 688H159V-140H266Q287 -140 300 -153T314 -187Q314 -207 301 -220T266 -234H112Z" />
<glyph unicode="\" horiz-adv-x="469" d="M388 -79Q376 -79 363 -72T344 -51L36 715Q33 723 33 734Q33 755 46 768T80 782Q95 782 106 775T123 754L430 -13Q435 -23 435 -32Q435 -52 422 -65T388 -79Z" />
<glyph unicode="]" horiz-adv-x="314" d="M47 -234Q27 -234 14 -221T0 -187Q0 -166 13 -153T47 -140H155V688H47Q27 688 14 701T0 734Q0 755 13 768T47 782H202Q222 782 235 769T249 734V-187Q249 -207 236 -220T202 -234H47Z" />
<glyph unicode="^" horiz-adv-x="469" d="M86 461Q66 461 53 474T39 507Q39 515 41 521T46 532L199 762Q213 781 237 781Q249 781 258 776T275 762L428 532Q435 521 435 507Q435 488 422 475T388 461Q365 461 351 479L237 650L122 479Q109 461 86 461Z" />
<glyph unicode="_" horiz-adv-x="469" d="M5 -93Q-15 -93 -28 -79T-41 -46Q-41 -27 -28 -14T5 0H478Q497 0 510 -13T524 -46Q524 -65 511 -79T478 -93H5Z" />
<glyph unicode="`" horiz-adv-x="273" d="M185 586Q166 586 154 599L50 702Q38 714 38 734Q38 754 51 767T83 781Q103 781 117 768L220 664Q232 652 232 633Q232 613 219 600T185 586Z" />
<glyph unicode="a" horiz-adv-x="676" d="M323 -4Q248 -4 189 32T96 131T62 273Q62 353 98 415T197 514T338 551Q417 551 479 515T577 415T615 273L579 264Q579 188 545 127T454 31T323 -4ZM338 78Q392 78 434 103T500 173T525 273Q525 329 501 373T434 443T338
469Q286 469 243 444T176 374T151 273Q151 218 175 174T243 104T338 78ZM568 -1Q548 -1 535 12T522 45V205L541 301L615 273V45Q615 25 602 12T568 -1Z" />
<glyph unicode="b" horiz-adv-x="705" d="M366 -4Q288 -4 226 32T127 131T90 272V735Q90 756 103 768T136 781Q157 781 169 769T182 735V455Q217 499 268 525T382 551Q456 551 515 515T608 416T643 274Q643 195 607 132T508 33T366 -4ZM366 78Q419 78 461 103T528
173T553 274Q553 330 529 374T462 443T366 469Q313 469 271 444T204 374T180 274Q180 218 204 174T270 104T366 78Z" />
<glyph unicode="c" horiz-adv-x="599" d="M336 -4Q257 -4 195 32T98 131T62 273Q62 354 96 417T191 515T330 551Q389 551 439 528T528 459Q541 445 538 429T517 401Q505 392 489 395T461 412Q408 469 330 469Q277 469 237 444T174 376T151 273Q151 217 174 173T240
104T336 78Q373 78 402 87T454 116Q468 128 483 129T511 120Q526 107 528 91T517 63Q445 -4 336 -4Z" />
<glyph unicode="d" horiz-adv-x="705" d="M338 -4Q260 -4 198 32T99 132T62 274Q62 353 96 415T189 514T323 551Q385 551 436 525T522 455V735Q522 756 535 768T568 781Q589 781 602 769T615 735V272Q614 194 578 131T479 32T338 -4ZM338 78Q392 78 434 103T500
173T525 274Q525 330 501 374T434 443T338 469Q286 469 243 444T176 374T151 274Q151 218 175 174T243 104T338 78Z" />
<glyph unicode="e" horiz-adv-x="618" d="M344 -4Q261 -4 198 31T98 129T62 273Q62 355 96 417T190 515T329 551Q406 551 462 517T548 422T578 282Q578 265 567 254T536 242H125V316H537L496 287Q495 340 475 382T418 448T329 472Q272 472 231 446T167 375T145
273Q145 216 170 172T240 101T344 75Q376 75 410 87T465 115Q479 126 495 126T523 117Q538 103 539 87T525 58Q491 31 441 14T344 -4Z" />
<glyph unicode="f" horiz-adv-x="367" d="M152 0Q135 0 122 12T108 46V545Q108 616 135 669T211 751T328 781Q348 781 361 769T374 739Q374 722 361 710T328 697Q288 697 260 679T216 629T200 552V46Q200 25 188 13T152 0ZM57 448Q38 448 27 459T15 487Q15 505
26 516T57 527H309Q328 527 340 516T352 487Q352 470 340 459T309 448H57Z" />
<glyph unicode="g" horiz-adv-x="676" d="M323 -4Q246 -4 188 31T96 129T62 273Q62 355 97 417T195 515T338 551Q419 551 481 516T578 418T615 273L561 264Q561 185 531 125T446 30T323 -4ZM338 -223Q264 -223 203 -195T100 -113Q88 -98 90 -82T108 -55Q124 -44
142 -47T171 -65Q199 -100 241 -120T340 -140Q391 -140 433 -116T500 -45T525 67V213L556 289L615 273V62Q615 -18 580 -82T482 -185T338 -223ZM338 78Q393 78 435 103T501 172T525 273Q525 330 501 374T435 444T338 469Q284 469 242 444T175 375T151 273Q151 216
175 172T241 103T338 78Z" />
<glyph unicode="h" horiz-adv-x="681" d="M136 208Q116 208 103 221T90 255V735Q90 756 103 768T136 781Q157 781 169 769T182 735V255Q182 235 170 222T136 208ZM555 -1Q535 -1 522 12T508 45V297Q508 356 486 393T427 449T342 468Q297 468 261 450T204 402T182
333H122Q123 396 154 445T238 523T357 552Q427 552 482 523T569 436T601 297V45Q601 26 588 13T555 -1ZM136 -1Q116 -1 103 12T90 45V501Q90 522 103 534T136 547Q157 547 169 535T182 501V45Q182 25 170 12T136 -1Z" />
<glyph unicode="i" horiz-adv-x="297" d="M149 0Q128 0 115 13T102 46V501Q102 522 115 534T149 547Q169 547 182 535T195 501V46Q195 26 182 13T149 0ZM404 642Q379 642 361 660T343 704Q343 730 361 747T405 765Q429 765 447 748T466 704Q466 678 448 660T404 642Z" />
<glyph unicode="j" horiz-adv-x="286" d="M-52 -234Q-72 -234 -85 -221T-98 -188Q-98 -167 -85 -154T-52 -141Q-10 -141 22 -123T73 -72T92 1V501Q92 522 104 534T138 547Q158 547 171 535T184 501V1Q184 -67 154 -120T70 -203T-52 -234ZM393 642Q368 642 350
660T332 704Q332 730 350 747T394 765Q418 765 436 748T455 704Q455 678 437 660T393 642Z" />
<glyph unicode="k" horiz-adv-x="570" d="M173 193L117 255L438 542Q451 555 467 555T496 540Q509 526 509 510T494 481L173 193ZM135 0Q115 0 103 12T90 45V736Q90 756 102 768T135 781Q155 781 167 769T180 736V45Q180 25 168 13T135 0ZM497 5Q482 -7 465 -6T435
11L225 270L288 330L503 65Q515 51 514 35T497 5Z" />
<glyph unicode="l" horiz-adv-x="293" d="M215 0Q173 0 140 23T89 86T70 180V736Q70 756 82 768T115 781Q136 781 148 769T161 736V180Q161 141 176 116T215 91H240Q259 91 270 79T281 45Q281 25 265 13T222 0H215Z" />
<glyph unicode="m" horiz-adv-x="941" d="M816 -1Q796 -1 783 12T770 45V332Q770 398 737 433T650 468Q594 468 559 430T523 330H445Q446 396 474 446T552 524T665 552Q723 552 767 526T837 451T862 332V45Q862 25 850 12T816 -1ZM136 -1Q116 -1 103 12T90 45V500Q90
521 103 533T136 546Q157 546 169 534T182 500V45Q182 25 170 12T136 -1ZM477 -1Q457 -1 444 12T431 45V332Q431 398 398 433T311 468Q255 468 219 430T182 333H122Q123 397 149 446T222 524T326 552Q384 552 428 526T498 451T523 332V45Q523 25 511 12T477 -1Z"
/>
<glyph unicode="n" horiz-adv-x="680" d="M555 -1Q535 -1 522 12T508 45V297Q508 356 486 393T427 449T342 468Q297 468 261 450T204 402T182 333H122Q123 396 154 445T238 523T357 552Q427 552 482 523T569 436T601 297V45Q601 26 588 13T555 -1ZM136 -1Q116
-1 103 12T90 45V501Q90 522 103 534T136 547Q157 547 169 535T182 501V45Q182 25 170 12T136 -1Z" />
<glyph unicode="o" horiz-adv-x="676" d="M338 -4Q258 -4 196 31T98 129T62 273Q62 355 97 417T195 515T338 551Q418 551 480 516T578 418T615 273Q615 192 579 130T481 32T338 -4ZM338 78Q393 78 435 103T501 172T525 273Q525 330 501 374T435 444T338 469Q284
469 242 444T175 375T151 273Q151 216 175 172T241 103T338 78Z" />
<glyph unicode="p" horiz-adv-x="705" d="M136 -234Q116 -234 103 -221T90 -188V275Q91 353 127 416T226 515T366 551Q445 551 507 515T606 416T643 273Q643 194 609 131T515 32T382 -4Q319 -4 268 22T182 92V-188Q182 -208 170 -221T136 -234ZM366 78Q419 78
461 103T528 173T553 273Q553 329 529 373T462 443T366 469Q313 469 271 443T204 373T180 273Q180 218 204 174T270 104T366 78Z" />
<glyph unicode="q" horiz-adv-x="705" d="M568 -234Q548 -234 535 -221T522 -188V92Q488 48 437 22T323 -4Q248 -4 189 32T96 131T62 273Q62 352 98 415T197 514T339 551Q416 551 478 515T577 416T615 275V-188Q615 -208 602 -221T568 -234ZM338 78Q392 78 434
103T500 173T525 273Q525 329 501 373T434 443T338 469Q286 469 243 444T176 374T151 273Q151 218 175 174T243 104T338 78Z" />
<glyph unicode="r" horiz-adv-x="475" d="M132 340Q134 401 163 449T242 525T350 553Q405 553 432 536T453 493Q450 478 441 472T420 465T394 466Q333 476 285 463T209 418T181 340H132ZM135 0Q114 0 102 11T90 45V502Q90 523 102 535T135 547Q158 547 169 536T181
502V45Q181 24 170 12T135 0Z" />
<glyph unicode="s" horiz-adv-x="541" d="M286 -4Q220 -4 161 16T68 73Q55 88 57 106T75 137Q92 150 110 148T140 132Q160 110 198 94T283 78Q348 78 379 99T412 153Q412 186 381 208T272 244Q171 263 125 303T79 400Q79 451 107 484T182 534T281 551Q347 551
397 530T477 470Q490 455 489 439T472 412Q457 403 438 406T405 423Q380 449 350 459T279 470Q231 470 200 452T168 403Q168 383 178 368T218 341T301 318Q376 304 419 281T482 227T501 157Q501 111 476 75T402 17T286 -4Z" />
<glyph unicode="t" horiz-adv-x="401" d="M295 0Q244 0 203 25T139 94T116 194V675Q116 695 128 708T161 721Q181 721 194 708T207 675V194Q207 149 232 120T295 91H326Q343 91 354 78T366 45Q366 25 352 13T314 0H295ZM62 448Q44 448 32 459T20 487Q20 505 32
516T62 527H303Q321 527 333 516T345 487Q345 470 333 459T303 448H62Z" />
<glyph unicode="u" horiz-adv-x="680" d="M323 -5Q253 -5 198 24T111 111T79 250V502Q79 521 92 534T125 548Q145 548 158 535T172 502V250Q172 192 194 154T253 98T338 79Q384 79 419 97T476 145T498 214H558Q556 152 526 102T442 24T323 -5ZM544 0Q524 0 511
13T498 46V502Q498 522 511 535T544 548Q564 548 577 535T590 502V46Q590 26 577 13T544 0Z" />
<glyph unicode="v" horiz-adv-x="550" d="M276 1Q247 1 232 31L17 487Q9 503 15 518T39 541Q54 549 70 544T94 523L298 83H253L454 523Q462 539 479 544T513 542Q529 534 535 519T533 488L319 31Q305 1 276 1Z" />
<glyph unicode="w" horiz-adv-x="733" d="M215 0Q200 0 188 8T171 30L20 483Q13 512 21 529T55 547Q72 547 83 538T102 508L233 102H203L325 512Q330 528 341 537T371 547Q389 547 400 538T416 512L523 120H507L632 508Q644 547 678 547Q704 547 713 529T712 483L561
30Q557 17 546 9T518 0Q504 0 491 8T475 30L363 425H374L259 30Q255 17 243 9T215 0Z" />
<glyph unicode="x" horiz-adv-x="554" d="M473 0Q462 0 454 3T438 17L263 231L230 263L56 475Q43 489 43 506T53 535T83 547Q104 547 118 532L288 324L314 300L501 70Q515 53 514 37T502 11T473 0ZM86 0Q67 0 57 11T46 39T58 72L234 292L284 223L118 14Q106 0
86 0ZM328 258L267 314L432 530Q440 540 448 543T468 547Q488 547 498 535T508 505T495 472L328 258Z" />
<glyph unicode="y" horiz-adv-x="542" d="M186 -239Q177 -239 165 -234Q125 -216 143 -177L455 521Q473 559 512 543Q553 526 535 486L222 -211Q210 -239 186 -239ZM302 20Q284 12 269 18T245 41L18 487Q9 504 15 520T40 543Q57 551 72 546T96 522L315 77Q325
59 322 44T302 20Z" />
<glyph unicode="z" horiz-adv-x="543" d="M139 22L73 72L426 530L487 476L139 22ZM107 0Q65 0 65 42Q65 85 107 85H460Q502 85 502 42Q502 0 460 0H107ZM100 462Q57 462 57 505Q57 547 100 547H452Q495 547 495 505Q495 462 452 462H100Z" />
<glyph unicode="{" horiz-adv-x="386" d="M317 -234Q156 -234 156 -74V160Q156 228 89 228Q69 228 56 240T43 273Q43 294 56 306T89 319Q156 319 156 387V621Q156 781 317 781Q336 781 349 768T362 734Q362 714 349 702T317 689Q249 689 249 621V387Q249 351 240
323T214 273Q249 231 249 160V-74Q249 -141 317 -141Q336 -141 349 -154T362 -188Q362 -208 349 -221T317 -234Z" />
<glyph unicode="|" horiz-adv-x="391" d="M197 -234Q177 -234 164 -221T150 -188V735Q150 755 163 768T197 781Q218 781 230 768T243 735V-188Q243 -208 231 -221T197 -234Z" />
<glyph unicode="}" horiz-adv-x="386" d="M69 -234Q50 -234 37 -221T24 -188Q24 -167 37 -154T69 -141Q137 -141 137 -74V160Q137 231 172 273Q155 294 146 322T137 387V621Q137 689 69 689Q50 689 37 701T24 734Q24 754 37 767T69 781Q230 781 230 621V387Q230
319 297 319Q317 319 330 307T343 273Q343 253 330 241T297 228Q230 228 230 160V-74Q230 -234 69 -234Z" />
<glyph unicode="~" horiz-adv-x="469" d="M330 304Q297 304 273 315T230 336Q209 348 194 353T167 359Q151 359 138 353T112 329Q101 314 85 308T53 310Q39 317 36 334T44 366Q67 399 100 416T172 434Q203 434 227 423T268 403Q289 390 301 385T328 380Q342 380
353 385T372 398Q385 411 397 416T426 411Q441 403 443 385T433 352Q395 304 330 304Z" />
<glyph unicode="&#xa0;" horiz-adv-x="293" />
<glyph unicode="&#xa1;" horiz-adv-x="280" d="M165 366Q183 366 197 353T211 320V-186Q211 -206 198 -219T165 -233Q145 -233 132 -220T118 -186V320Q118 338 131 352T165 366ZM165 548Q191 548 210 529T230 483Q230 457 211 437T165 417Q138 417 119 436T100
483Q100 510 119 529T165 548Z" />
<glyph unicode="&#xa2;" horiz-adv-x="599" d="M184 -96Q169 -96 160 -85T157 -53L415 629Q423 650 444 650Q460 650 468 638T472 611L215 -74Q206 -96 184 -96ZM336 -4Q257 -4 195 32T98 131T62 273Q62 354 96 417T191 515T330 551Q389 551 439 528T528 459Q541
445 538 429T517 401Q505 392 489 395T461 412Q408 469 330 469Q277 469 237 444T174 376T151 273Q151 217 174 173T240 104T336 78Q373 78 402 87T454 116Q468 128 483 129T511 120Q526 107 528 91T517 63Q445 -4 336 -4Z" />
<glyph unicode="&#xa3;" horiz-adv-x="508" d="M124 0Q101 0 89 13T77 46Q77 57 80 65Q106 127 119 187T133 305H85Q65 305 52 319T38 353Q38 372 51 385T85 399H124Q109 440 99 469T83 525T77 581Q77 636 104 681T176 754T276 781Q331 781 375 761T453 698Q459
691 463 682T468 663Q468 643 455 630T421 616Q401 616 392 628Q366 656 342 673T279 691Q246 691 222 676T184 635T171 577Q171 551 177 524T194 466T220 399H353Q373 399 386 386T399 353Q399 333 386 319T353 305H227Q226 254 218 201T191 94H416Q423 108 429
121T443 146Q450 157 459 163T483 170Q503 170 516 156T530 123Q530 111 524 101L488 28Q480 14 469 7T445 0H124Z" />
<glyph unicode="&#xa4;" horiz-adv-x="520" d="M99 148Q76 148 61 163T45 203Q45 225 61 241L96 273Q73 315 73 362T95 451L61 486Q45 501 45 524Q45 548 60 563T99 579Q121 579 137 564L171 528Q215 553 262 552T347 530L382 563Q391 570 399 574T420 579Q443
579 459 564T475 524Q475 500 459 485L426 454Q448 414 448 365T427 276L460 241Q475 225 475 203Q475 179 460 164T421 148Q410 148 401 151T383 162L351 198Q308 176 263 176T174 196L138 163Q122 148 99 148ZM260 270Q286 270 307 282T340 316T353 363Q353 390
340 411T307 444T260 457Q234 457 213 444T180 410T167 363Q167 339 179 318T213 283T260 270Z" />
<glyph unicode="&#xa5;" horiz-adv-x="662" d="M171 287Q150 287 138 298T125 328Q125 347 137 357T171 368H491Q512 368 525 358T538 328Q538 309 525 298T491 287H171ZM171 152Q150 152 138 162T125 192Q125 211 137 222T171 233H491Q512 233 525 222T538 192Q538
173 525 163T491 152H171ZM330 0Q311 0 298 13T284 47V287L15 708Q3 726 6 743T21 770T52 781Q67 781 76 775T93 756L353 341H312L574 758Q582 769 592 775T616 781Q633 781 644 770T657 742T648 708L377 287V47Q377 27 364 14T330 0Z" />
<glyph unicode="&#xa6;" horiz-adv-x="234" d="M120 416Q100 416 87 429T74 463V803Q74 823 87 836T120 850Q140 850 153 837T166 803V463Q166 443 153 430T120 416ZM120 -234Q100 -234 87 -221T74 -188V151Q74 171 87 184T120 197Q140 197 153 184T166 151V-188Q166
-208 153 -221T120 -234Z" />
<glyph unicode="&#xa7;" horiz-adv-x="469" d="M239 -234Q184 -234 138 -207T65 -134T38 -32Q38 -13 51 1T86 15Q105 15 118 1T132 -32Q132 -62 147 -86T186 -124T239 -139Q268 -139 292 -125T331 -86T346 -32Q346 -4 332 20T293 58T239 73Q184 73 138 100T65
172T38 274Q38 318 56 356T109 428Q71 463 55 500T38 581Q38 636 65 681T138 754T239 782Q294 782 340 755T413 682T440 581Q440 562 427 548T394 533Q373 533 360 547T346 581Q346 610 331 634T292 673T239 688Q211 688 187 674T147 635T132 581Q132 552 146 528T185
489T239 475Q294 475 340 448T413 375T440 274Q440 230 423 191T368 120Q405 89 422 50T440 -32Q440 -88 413 -133T340 -206T239 -234ZM239 168Q268 168 292 182T331 220T346 273Q346 304 332 328T293 366T239 381Q210 381 186 367T147 328T132 273Q132 244 147
220T186 182T239 168Z" />
<glyph unicode="&#xa8;" horiz-adv-x="469" d="M130 617Q107 617 90 634T72 675Q72 698 89 715T130 733Q154 733 171 716T189 675Q189 651 172 634T130 617ZM347 617Q324 617 307 634T290 675Q290 698 306 715T348 733Q371 733 388 716T406 675Q406 651 389 634T347 617Z" />
<glyph unicode="&#xa9;" horiz-adv-x="859" d="M442 146Q373 146 320 178T235 266T204 393Q204 464 233 520T315 608T436 641Q540 641 608 558Q619 544 617 529T597 501Q585 493 570 495T544 511Q500 559 436 559Q392 559 359 538T307 480T288 393Q288 343 307
306T362 248T442 226Q501 226 538 258Q551 270 566 271T593 262Q607 249 608 233T598 205Q535 146 442 146ZM436 0Q355 0 284 29T159 112T75 237T45 392Q45 472 75 542T158 667T283 751T436 781Q517 781 587 751T711 667T795 543T826 391Q826 308 796 237T712 113T588
30T436 0ZM434 76Q501 76 558 100T658 169T726 270T751 392Q751 457 726 514T658 615T557 683T434 708Q370 708 313 684T212 615T144 514T119 392Q119 327 143 270T211 169T311 101T434 76Z" />
<glyph unicode="&#xaa;" horiz-adv-x="479" d="M238 393Q182 393 137 419T66 490T40 591Q40 648 66 692T137 763T238 789Q294 789 339 763T410 692T436 591L390 498Q369 453 331 423T238 393ZM238 482Q285 482 316 513T347 591Q347 638 316 669T238 700Q191 700
160 669T129 591Q129 544 160 513T238 482ZM392 389Q372 389 361 402T351 435L367 591H436V435Q436 415 423 402T392 389Z" />
<glyph unicode="&#xab;" horiz-adv-x="469" d="M389 0Q376 0 365 7T346 28L236 249Q229 261 229 273Q229 284 235 295L346 518Q359 546 389 546Q409 546 422 533T435 501Q435 490 431 481L327 273L431 65Q435 57 435 46Q435 27 422 14T389 0ZM197 0Q184 0 173
7T155 28L44 249Q41 256 40 261T38 273Q38 284 43 295L155 518Q169 546 197 546Q218 546 231 533T244 501Q244 488 240 481L137 273L240 65Q244 58 244 46Q244 27 231 14T197 0Z" />
<glyph unicode="&#xac;" horiz-adv-x="547" d="M462 223Q444 223 431 236T417 270V374H85Q65 374 52 387T38 421Q38 440 51 453T85 467H462Q483 467 496 454T509 421V270Q509 250 496 237T462 223Z" />
<glyph unicode="&#xad;" horiz-adv-x="391" d="M83 228Q63 228 50 240T37 273Q37 294 50 306T83 319H310Q330 319 343 307T356 273Q356 253 343 241T310 228H83Z" />
<glyph unicode="&#xae;" horiz-adv-x="859" d="M326 162Q309 162 299 172T289 198V603Q289 619 300 629T329 639H433Q481 639 518 620T576 568T598 490Q598 447 577 413T517 360T433 340H363V198Q363 183 353 173T326 162ZM572 162Q549 162 539 180L428 361L500
384L600 218Q613 196 605 179T572 162ZM363 407H437Q475 407 499 429T524 490Q524 530 500 551T437 573H363V407ZM436 0Q355 0 284 29T159 112T75 237T45 392Q45 472 75 542T158 667T283 751T436 781Q517 781 587 751T711 667T795 543T826 391Q826 308 796 237T712
113T588 30T436 0ZM434 76Q501 76 558 100T658 169T726 270T751 392Q751 457 726 514T658 615T557 683T434 708Q370 708 313 684T212 615T144 514T119 392Q119 327 143 270T211 169T311 101T434 76Z" />
<glyph unicode="&#xaf;" horiz-adv-x="547" d="M147 644Q127 644 114 655T101 686Q101 706 114 716T147 727H401Q420 727 434 717T448 686Q448 666 434 655T401 644H147Z" />
<glyph unicode="&#xb0;" horiz-adv-x="469" d="M235 379Q181 379 136 406T65 477T38 577Q38 630 64 675T136 747T235 775Q290 775 334 748T406 676T434 577Q434 522 407 478T335 406T235 379ZM235 471Q264 471 288 485T326 524T340 577Q340 605 326 629T288 667T235
681Q207 681 183 667T145 629T131 577Q131 547 144 524T182 486T235 471Z" />
<glyph unicode="&#xb1;" horiz-adv-x="547" d="M274 161Q254 161 241 174T227 207V350H85Q65 350 52 364T38 397Q38 417 51 430T85 444H227V587Q227 606 241 619T274 633Q294 633 307 620T320 587V444H462Q482 444 495 430T509 397Q509 378 496 364T462 350H320V207Q320
188 307 175T274 161ZM85 131Q65 131 52 144T38 178Q38 198 51 211T85 224H462Q483 224 496 211T509 178Q509 158 496 145T462 131H85Z" />
<glyph unicode="&#xb2;" horiz-adv-x="372" d="M89 386Q71 386 60 397T48 427Q48 435 50 442T58 456L213 618Q227 632 233 645T239 672Q239 693 223 708T179 724Q147 724 129 706T110 662Q110 644 102 633T75 621Q60 621 51 633T41 662Q41 719 79 756T180 793Q242
793 277 758T313 669Q313 636 294 612T256 568L119 426L113 461H285Q303 461 315 453T327 425Q327 406 316 396T285 386H89Z" />
<glyph unicode="&#xb3;" horiz-adv-x="377" d="M190 377Q127 377 86 412T45 501Q45 519 56 530T86 542Q102 542 112 531T122 501Q122 479 139 464T188 448Q213 448 232 461T252 500Q252 525 237 541T199 558Q178 558 166 567T154 593Q154 630 194 630Q217 630
230 641T243 674Q243 695 227 708T186 721Q159 721 142 709T121 678Q119 665 110 655T89 645Q72 645 61 655T50 682Q50 714 68 739T118 779T187 794Q241 794 278 762T315 679Q315 653 299 630T254 595Q291 584 310 558T330 496Q330 461 311 435T261 393T190 377Z"
/>
<glyph unicode="&#xb4;" horiz-adv-x="273" d="M95 586Q75 586 62 599T49 633Q49 652 60 664L164 768Q177 781 196 781Q217 781 230 768T243 734Q243 714 230 702L127 599Q115 586 95 586Z" />
<glyph unicode="&#xb5;" horiz-adv-x="680" d="M338 -5Q274 -5 226 29T150 121T123 250H79V502Q79 522 92 535T126 548Q146 548 159 535T172 502V250Q172 200 193 162T252 101T338 79Q385 79 421 96T477 144T498 214L548 213Q547 150 519 100T443 23T338 -5ZM126
-234Q105 -234 92 -221T79 -188V292H172V-188Q172 -208 159 -221T126 -234ZM544 0Q524 0 511 13T498 46V502Q498 522 511 535T544 548Q564 548 577 535T590 502V46Q590 26 577 13T544 0Z" />
<glyph unicode="&#xb6;" horiz-adv-x="585" d="M280 0Q260 0 247 13T234 46V385Q180 388 137 415T70 486T45 583Q45 639 71 684T142 755T242 781H493Q513 781 526 768T540 734Q540 719 529 707T502 690V46Q502 26 489 13T455 0Q435 0 422 13T409 46V689H327V46Q327
26 314 13T280 0Z" />
<glyph unicode="&#xb7;" horiz-adv-x="195" d="M97 303Q71 303 52 322T32 368Q32 395 51 414T97 434Q124 434 143 415T162 368Q162 341 143 322T97 303Z" />
<glyph unicode="&#xb8;" horiz-adv-x="313" d="M157 -234Q99 -234 62 -210T25 -153Q25 -135 38 -122T69 -109Q81 -109 89 -115T103 -133Q110 -148 124 -156T158 -164Q178 -164 192 -155T206 -128Q206 -109 196 -98T159 -82Q130 -77 119 -63T118 -19L130 14Q143
51 182 51Q205 51 216 36T218 -1L203 -35Q255 -47 277 -70T300 -130Q300 -156 282 -180T232 -219T157 -234Z" />
<glyph unicode="&#xb9;" horiz-adv-x="291" d="M185 386Q165 386 156 399T146 432V688L105 674Q78 666 58 667T31 687Q24 706 34 719T61 739L171 776Q200 786 212 774T225 734V432Q225 412 216 399T185 386Z" />
<glyph unicode="&#xba;" horiz-adv-x="476" d="M238 393Q182 393 137 419T66 490T40 591Q40 648 66 692T137 763T238 789Q294 789 339 763T410 692T436 591Q436 535 410 490T339 419T238 393ZM238 482Q285 482 316 513T347 591Q347 638 316 669T238 700Q191 700
160 669T129 591Q129 544 160 513T238 482Z" />
<glyph unicode="&#xbb;" horiz-adv-x="469" d="M276 0Q256 0 243 13T229 46Q229 57 234 65L337 273L234 481Q232 485 231 489T229 501Q229 520 242 533T276 546Q306 546 319 518L430 295Q432 289 433 284T435 273Q435 267 434 262T429 249L319 28Q312 14 301 7T276
0ZM84 0Q65 0 52 13T39 46Q39 57 42 65L145 273L42 481Q41 485 40 489T38 501Q38 520 51 533T84 546Q114 546 127 518L238 295Q241 289 242 284T244 273Q244 261 237 249L127 28Q120 14 109 7T84 0Z" />
<glyph unicode="&#xbc;" horiz-adv-x="782" d="M185 386Q165 386 156 399T146 432V688L105 674Q78 666 58 667T31 687Q24 706 34 719T61 739L171 776Q200 786 212 774T225 734V432Q225 412 216 399T185 386ZM151 0Q133 0 123 15T125 51L582 759Q591 772 601 778T621
784Q641 784 652 766T646 723L186 23Q171 0 151 0ZM630 -8Q613 -8 603 1T593 27V83H430Q414 83 404 92T394 116Q394 129 405 145L593 388Q600 398 610 402T629 407Q645 407 657 397T669 372V150H702Q716 150 726 141T736 116Q736 101 726 92T702 83H669V27Q669
11 659 2T630 -8ZM487 150H594V291L487 150Z" />
<glyph unicode="&#xbd;" horiz-adv-x="857" d="M185 386Q165 386 156 399T146 432V688L105 674Q78 666 58 667T31 687Q24 706 34 719T61 739L171 776Q200 786 212 774T225 734V432Q225 412 216 399T185 386ZM192 0Q174 0 164 15T166 51L623 759Q632 772 642 778T662
784Q682 784 693 766T687 723L227 23Q212 0 192 0ZM572 0Q554 0 543 11T531 41Q531 49 533 56T541 70L696 232Q710 246 716 259T722 286Q722 307 706 322T662 338Q630 338 612 320T593 276Q593 258 585 247T558 235Q543 235 534 247T524 276Q524 333 562 370T663
407Q725 407 760 372T796 283Q796 250 777 226T739 182L602 40L596 75H768Q786 75 798 67T810 39Q810 20 799 10T768 0H572Z" />
<glyph unicode="&#xbe;" horiz-adv-x="853" d="M190 377Q127 377 86 412T45 501Q45 519 56 530T86 542Q102 542 112 531T122 501Q122 479 139 464T188 448Q213 448 232 461T252 500Q252 525 237 541T199 558Q178 558 166 567T154 593Q154 630 194 630Q217 630
230 641T243 674Q243 695 227 708T186 721Q159 721 142 709T121 678Q119 665 110 655T89 645Q72 645 61 655T50 682Q50 714 68 739T118 779T187 794Q241 794 278 762T315 679Q315 653 299 630T254 595Q291 584 310 558T330 496Q330 461 311 435T261 393T190 377ZM198
0Q180 0 170 15T172 51L629 759Q638 772 648 778T668 784Q688 784 699 766T693 723L233 23Q218 0 198 0ZM696 -8Q679 -8 669 1T659 27V83H496Q480 83 470 92T460 116Q460 129 471 145L659 388Q666 398 676 402T695 407Q711 407 723 397T735 372V150H768Q782 150
792 141T802 116Q802 101 792 92T768 83H735V27Q735 11 725 2T696 -8ZM553 150H660V291L553 150Z" />
<glyph unicode="&#xbf;" horiz-adv-x="547" d="M270 439Q291 439 304 426T317 393Q317 353 297 307T238 225Q209 200 184 175T143 119T127 41Q127 6 143 -24T190 -72T263 -90Q312 -90 345 -71T396 -18T413 60Q413 81 426 93T459 106Q480 106 493 94T506 60Q506
-9 476 -62T391 -145T263 -176Q198 -176 147 -148T66 -71T36 42Q36 99 54 139T105 211T176 277Q204 301 214 335T224 393Q224 413 237 426T270 439ZM270 621Q298 621 316 602T335 556Q335 529 316 510T270 490Q244 490 225 509T205 556Q205 583 224 602T270 621Z"
/>
<glyph unicode="&#xc0;" horiz-adv-x="703" d="M64 0Q38 0 25 22T23 68L309 749Q322 781 353 781Q386 781 398 749L685 66Q695 42 682 21T642 0Q629 0 617 7T599 29L340 665H369L108 29Q102 14 90 7T64 0ZM122 177L159 256H556L592 177H122ZM350 868Q331 868 319
881L215 984Q203 996 203 1016Q203 1036 216 1049T248 1063Q268 1063 282 1049L385 945Q397 934 397 915Q397 895 384 882T350 868Z" />
<glyph unicode="&#xc1;" horiz-adv-x="703" d="M64 0Q38 0 25 22T23 68L309 749Q322 781 353 781Q386 781 398 749L685 66Q695 42 682 21T642 0Q629 0 617 7T599 29L340 665H369L108 29Q102 14 90 7T64 0ZM122 177L159 256H556L592 177H122ZM351 866Q332 866 319
879T305 912Q305 931 316 943L420 1047Q433 1060 452 1060Q473 1060 486 1047T499 1013Q499 1004 496 996T486 981L383 878Q371 866 351 866Z" />
<glyph unicode="&#xc2;" horiz-adv-x="703" d="M64 0Q38 0 25 22T23 68L309 749Q322 781 353 781Q386 781 398 749L685 66Q695 42 682 21T642 0Q629 0 617 7T599 29L340 665H369L108 29Q102 14 90 7T64 0ZM122 177L159 256H556L592 177H122ZM239 856Q219 856 206
867T192 895Q192 919 214 935L329 1010Q340 1017 352 1017Q359 1017 364 1016T376 1010L490 935Q512 919 512 895Q512 878 499 867T466 856Q457 856 451 858T436 866L352 925L268 866Q255 856 239 856Z" />
<glyph unicode="&#xc3;" horiz-adv-x="703" d="M64 0Q38 0 25 22T23 68L309 749Q322 781 353 781Q386 781 398 749L685 66Q695 42 682 21T642 0Q629 0 617 7T599 29L340 665H369L108 29Q102 14 90 7T64 0ZM122 177L159 256H556L592 177H122ZM419 867Q394 867 373
878T336 907Q323 919 315 925T295 932Q284 932 277 924T261 901Q252 886 238 880T208 881Q192 888 186 903T189 934Q209 972 233 989T289 1007Q321 1007 340 992T373 965Q387 954 395 950T410 945Q422 945 433 964Q442 979 457 985T487 986Q505 978 511 963T507
932Q488 897 467 882T419 867Z" />
<glyph unicode="&#xc4;" horiz-adv-x="703" d="M64 0Q38 0 25 22T23 68L309 749Q322 781 353 781Q386 781 398 749L685 66Q695 42 682 21T642 0Q629 0 617 7T599 29L340 665H369L108 29Q102 14 90 7T64 0ZM122 177L159 256H556L592 177H122ZM244 871Q220 871 203
888T185 929Q185 952 202 969T244 987Q268 987 285 970T302 929Q302 905 285 888T244 871ZM461 871Q437 871 420 888T403 929Q403 952 420 969T461 987Q485 987 502 970T519 929Q519 905 502 888T461 871Z" />
<glyph unicode="&#xc5;" horiz-adv-x="703" d="M64 0Q38 0 25 22T23 68L309 749Q322 781 353 781Q386 781 398 749L685 66Q695 42 682 21T642 0Q629 0 617 7T599 29L340 665H369L108 29Q102 14 90 7T64 0ZM122 177L159 256H556L592 177H122ZM352 823Q308 823 279
852T249 926Q249 971 278 1000T352 1030Q397 1030 426 1001T456 926Q456 882 427 853T352 823ZM352 874Q375 874 389 889T404 926Q404 949 390 964T352 979Q330 979 315 964T300 926Q300 904 315 889T352 874Z" />
<glyph unicode="&#xc6;" horiz-adv-x="985" d="M66 0Q49 0 37 10T20 37T25 68L444 750Q453 764 466 772T498 781H894Q915 781 927 769T940 736Q940 718 928 706T894 693H536V437H780Q800 437 813 425T826 393Q826 374 813 362T780 349H536V88H894Q915 88 927 76T940
45Q940 25 928 13T894 0H489Q469 0 456 13T442 47V177H200L110 29Q93 0 66 0ZM248 256H442V619L466 620L248 256Z" />
<glyph unicode="&#xc7;" horiz-adv-x="774" d="M450 -10Q369 -10 299 20T176 106T93 234T63 391Q63 474 92 546T175 674T298 760T450 791Q525 791 582 771T695 704Q703 698 706 691T710 676T706 661Q705 646 694 637T667 628T636 638Q598 671 556 688T450 705Q389
705 336 680T241 612T177 512T154 391Q154 325 177 269T241 169T335 101T450 77Q503 77 550 94T639 144Q655 156 671 155T698 142T709 110Q709 101 706 93T695 77Q643 32 581 11T450 -10ZM438 -234Q380 -234 343 -210T306 -153Q306 -135 319 -123T350 -110Q361
-110 369 -115T384 -133Q391 -148 405 -156T439 -164Q460 -164 473 -155T487 -128Q487 -109 477 -98T440 -82Q411 -77 400 -63T399 -19L411 14Q417 31 430 41T463 51Q486 51 497 36T499 -1L484 -35Q536 -47 558 -70T581 -130Q581 -156 563 -180T513 -219T438 -234Z"
/>
<glyph unicode="&#xc8;" horiz-adv-x="697" d="M147 0Q127 0 114 13T100 47V734Q100 755 113 768T147 781H606Q626 781 639 769T652 736Q652 718 639 706T606 693H194V437H491Q512 437 524 425T537 393Q537 374 525 362T491 349H194V88H606Q626 88 639 76T652
45Q652 25 639 13T606 0H147ZM384 868Q365 868 353 881L249 984Q237 996 237 1016Q237 1036 250 1049T282 1063Q302 1063 316 1049L419 945Q431 934 431 915Q431 895 418 882T384 868Z" />
<glyph unicode="&#xc9;" horiz-adv-x="697" d="M147 0Q127 0 114 13T100 47V734Q100 755 113 768T147 781H606Q626 781 639 769T652 736Q652 718 639 706T606 693H194V437H491Q512 437 524 425T537 393Q537 374 525 362T491 349H194V88H606Q626 88 639 76T652
45Q652 25 639 13T606 0H147ZM385 866Q366 866 353 879T339 912Q339 931 350 943L454 1047Q467 1060 486 1060Q507 1060 520 1047T533 1013Q533 1004 530 996T520 981L417 878Q405 866 385 866Z" />
<glyph unicode="&#xca;" horiz-adv-x="697" d="M147 0Q127 0 114 13T100 47V734Q100 755 113 768T147 781H606Q626 781 639 769T652 736Q652 718 639 706T606 693H194V437H491Q512 437 524 425T537 393Q537 374 525 362T491 349H194V88H606Q626 88 639 76T652
45Q652 25 639 13T606 0H147ZM274 856Q254 856 241 867T227 895Q227 919 249 935L364 1010Q375 1017 387 1017Q394 1017 399 1016T411 1010L525 935Q547 919 547 895Q547 878 534 867T501 856Q492 856 486 858T471 866L387 925L303 866Q290 856 274 856Z" />
<glyph unicode="&#xcb;" horiz-adv-x="697" d="M147 0Q127 0 114 13T100 47V734Q100 755 113 768T147 781H606Q626 781 639 769T652 736Q652 718 639 706T606 693H194V437H491Q512 437 524 425T537 393Q537 374 525 362T491 349H194V88H606Q626 88 639 76T652
45Q652 25 639 13T606 0H147ZM278 871Q254 871 237 888T219 929Q219 952 236 969T278 987Q302 987 319 970T336 929Q336 905 319 888T278 871ZM495 871Q471 871 454 888T437 929Q437 952 454 969T495 987Q519 987 536 970T553 929Q553 905 536 888T495 871Z" />
<glyph unicode="&#xcc;" horiz-adv-x="294" d="M147 0Q127 0 114 13T100 47V734Q100 755 113 768T147 781Q168 781 181 768T194 734V47Q194 27 181 14T147 0ZM145 868Q126 868 114 881L10 984Q-2 996 -2 1016Q-2 1036 11 1049T43 1063Q63 1063 77 1049L180 945Q192
934 192 915Q192 895 179 882T145 868Z" />
<glyph unicode="&#xcd;" horiz-adv-x="294" d="M147 0Q127 0 114 13T100 47V734Q100 755 113 768T147 781Q168 781 181 768T194 734V47Q194 27 181 14T147 0ZM146 866Q127 866 114 879T100 912Q100 931 111 943L215 1047Q228 1060 247 1060Q268 1060 281 1047T294
1013Q294 1004 291 996T281 981L178 878Q166 866 146 866Z" />
<glyph unicode="&#xce;" horiz-adv-x="294" d="M147 0Q127 0 114 13T100 47V734Q100 755 113 768T147 781Q168 781 181 768T194 734V47Q194 27 181 14T147 0ZM34 856Q14 856 1 867T-13 895Q-13 919 9 935L124 1010Q135 1017 147 1017Q154 1017 159 1016T171 1010L285
935Q307 919 307 895Q307 878 294 867T261 856Q252 856 246 858T231 866L147 925L63 866Q50 856 34 856Z" />
<glyph unicode="&#xcf;" horiz-adv-x="294" d="M147 0Q127 0 114 13T100 47V734Q100 755 113 768T147 781Q168 781 181 768T194 734V47Q194 27 181 14T147 0ZM39 871Q15 871 -2 888T-20 929Q-20 952 -3 969T39 987Q63 987 80 970T97 929Q97 905 80 888T39 871ZM256
871Q232 871 215 888T198 929Q198 952 215 969T256 987Q280 987 297 970T314 929Q314 905 297 888T256 871Z" />
<glyph unicode="&#xd0;" horiz-adv-x="778" d="M45 350Q25 350 12 361T-1 391Q-1 410 12 421T45 432H330Q351 432 364 421T377 391Q377 372 364 361T330 350H45ZM147 0Q127 0 114 13T100 47V734Q100 755 113 768T147 781H328Q414 781 484 753T607 672T687 548T716
391Q716 305 688 234T607 110T485 29T328 0H147ZM194 84H328Q415 84 481 123T586 232T625 391Q625 481 587 550T482 658T328 697H194V84Z" />
<glyph unicode="&#xd1;" horiz-adv-x="828" d="M146 0Q126 0 113 13T100 47V734Q100 755 113 768T146 781Q168 781 183 764L635 165V734Q635 755 648 768T682 781Q702 781 715 768T728 734V47Q728 27 715 14T682 0Q672 0 662 4T646 16L193 615V47Q193 27 180 14T146
0ZM520 858Q487 858 463 869T420 890Q399 902 384 907T357 913Q341 913 328 907T302 883Q291 868 275 862T243 864Q229 871 226 888T234 920Q257 953 290 970T362 988Q394 988 417 977T458 957Q480 944 492 939T518 934Q532 934 543 939T562 952Q575 965 587 970T616
965Q631 957 633 939T623 906Q584 858 520 858Z" />
<glyph unicode="&#xd2;" horiz-adv-x="921" d="M461 -10Q373 -10 300 19T175 103T93 230T63 391Q63 478 92 551T174 678T300 761T461 791Q548 791 621 762T747 678T829 551T859 391Q859 303 830 230T747 103T621 20T461 -10ZM461 76Q528 76 584 100T681 166T745
266T768 391Q768 458 746 515T682 615T584 681T461 705Q394 705 338 682T241 615T177 515T154 391Q154 324 177 267T241 167T338 100T461 76ZM459 868Q440 868 428 881L324 984Q312 996 312 1016Q312 1036 325 1049T357 1063Q377 1063 391 1049L494 945Q506 934
506 915Q506 895 493 882T459 868Z" />
<glyph unicode="&#xd3;" horiz-adv-x="921" d="M461 -10Q373 -10 300 19T175 103T93 230T63 391Q63 478 92 551T174 678T300 761T461 791Q548 791 621 762T747 678T829 551T859 391Q859 303 830 230T747 103T621 20T461 -10ZM461 76Q528 76 584 100T681 166T745
266T768 391Q768 458 746 515T682 615T584 681T461 705Q394 705 338 682T241 615T177 515T154 391Q154 324 177 267T241 167T338 100T461 76ZM460 866Q441 866 428 879T414 912Q414 931 425 943L529 1047Q542 1060 561 1060Q582 1060 595 1047T608 1013Q608 1004
605 996T595 981L492 878Q480 866 460 866Z" />
<glyph unicode="&#xd4;" horiz-adv-x="921" d="M461 -10Q373 -10 300 19T175 103T93 230T63 391Q63 478 92 551T174 678T300 761T461 791Q548 791 621 762T747 678T829 551T859 391Q859 303 830 230T747 103T621 20T461 -10ZM461 76Q528 76 584 100T681 166T745
266T768 391Q768 458 746 515T682 615T584 681T461 705Q394 705 338 682T241 615T177 515T154 391Q154 324 177 267T241 167T338 100T461 76ZM348 856Q328 856 315 867T301 895Q301 919 323 935L438 1010Q449 1017 461 1017Q468 1017 473 1016T485 1010L599 935Q621
919 621 895Q621 878 608 867T575 856Q566 856 560 858T545 866L461 925L377 866Q364 856 348 856Z" />
<glyph unicode="&#xd5;" horiz-adv-x="921" d="M461 -10Q373 -10 300 19T175 103T93 230T63 391Q63 478 92 551T174 678T300 761T461 791Q548 791 621 762T747 678T829 551T859 391Q859 303 830 230T747 103T621 20T461 -10ZM461 76Q528 76 584 100T681 166T745
266T768 391Q768 458 746 515T682 615T584 681T461 705Q394 705 338 682T241 615T177 515T154 391Q154 324 177 267T241 167T338 100T461 76ZM567 858Q534 858 510 869T467 890Q446 902 431 907T404 913Q388 913 375 907T349 883Q338 868 322 862T290 864Q276 871
273 888T281 920Q304 953 337 970T409 988Q441 988 464 977T505 957Q527 944 539 939T565 934Q579 934 590 939T609 952Q622 965 634 970T663 965Q678 957 680 939T670 906Q631 858 567 858Z" />
<glyph unicode="&#xd6;" horiz-adv-x="921" d="M461 -10Q373 -10 300 19T175 103T93 230T63 391Q63 478 92 551T174 678T300 761T461 791Q548 791 621 762T747 678T829 551T859 391Q859 303 830 230T747 103T621 20T461 -10ZM461 76Q528 76 584 100T681 166T745
266T768 391Q768 458 746 515T682 615T584 681T461 705Q394 705 338 682T241 615T177 515T154 391Q154 324 177 267T241 167T338 100T461 76ZM353 871Q329 871 312 888T294 929Q294 952 311 969T353 987Q377 987 394 970T411 929Q411 905 394 888T353 871ZM570
871Q546 871 529 888T512 929Q512 952 529 969T570 987Q594 987 611 970T628 929Q628 905 611 888T570 871Z" />
<glyph unicode="&#xd7;" horiz-adv-x="469" d="M84 151Q64 151 51 164T38 197Q38 218 50 230L170 350L50 468Q38 483 38 500Q38 520 51 533T84 547Q103 547 118 534L235 415L354 534Q367 547 387 547Q406 547 420 534T434 501Q434 483 420 468L302 350L420 230Q434
217 434 197Q434 177 420 164T387 151Q368 151 355 164L235 283L116 164Q103 151 84 151Z" />
<glyph unicode="&#xd8;" horiz-adv-x="907" d="M89 0Q67 0 60 19T66 51L159 144L191 168L695 672L723 693L804 773Q812 781 825 781Q844 781 854 764T848 731L767 650L741 631L232 122L204 102L110 8Q102 0 89 0ZM461 -10Q373 -10 300 19T175 103T93 230T63 391Q63
478 92 551T174 678T300 761T461 791Q548 791 621 762T747 678T829 551T859 391Q859 303 830 230T747 103T621 20T461 -10ZM461 76Q528 76 584 100T681 166T745 266T768 391Q768 458 746 515T682 615T584 681T461 705Q394 705 338 682T241 615T177 515T154 391Q154
324 177 267T241 167T338 100T461 76Z" />
<glyph unicode="&#xd9;" horiz-adv-x="835" d="M421 -16Q327 -16 255 19T141 117T100 260V734Q100 754 113 767T147 781Q168 781 181 768T194 734V260Q194 204 223 162T303 95T421 70Q485 70 535 94T613 161T642 260V734Q642 754 655 767T689 781Q710 781 722
768T735 734V260Q735 180 695 118T584 20T421 -16ZM416 868Q397 868 385 881L281 984Q269 996 269 1016Q269 1036 282 1049T314 1063Q334 1063 348 1049L451 945Q463 934 463 915Q463 895 450 882T416 868Z" />
<glyph unicode="&#xda;" horiz-adv-x="835" d="M421 -16Q327 -16 255 19T141 117T100 260V734Q100 754 113 767T147 781Q168 781 181 768T194 734V260Q194 204 223 162T303 95T421 70Q485 70 535 94T613 161T642 260V734Q642 754 655 767T689 781Q710 781 722
768T735 734V260Q735 180 695 118T584 20T421 -16ZM417 866Q398 866 385 879T371 912Q371 931 382 943L486 1047Q499 1060 518 1060Q539 1060 552 1047T565 1013Q565 1004 562 996T552 981L449 878Q437 866 417 866Z" />
<glyph unicode="&#xdb;" horiz-adv-x="835" d="M421 -16Q327 -16 255 19T141 117T100 260V734Q100 754 113 767T147 781Q168 781 181 768T194 734V260Q194 204 223 162T303 95T421 70Q485 70 535 94T613 161T642 260V734Q642 754 655 767T689 781Q710 781 722
768T735 734V260Q735 180 695 118T584 20T421 -16ZM305 856Q285 856 272 867T258 895Q258 919 280 935L395 1010Q406 1017 418 1017Q425 1017 430 1016T442 1010L556 935Q578 919 578 895Q578 878 565 867T532 856Q523 856 517 858T502 866L418 925L334 866Q321
856 305 856Z" />
<glyph unicode="&#xdc;" horiz-adv-x="835" d="M421 -16Q327 -16 255 19T141 117T100 260V734Q100 754 113 767T147 781Q168 781 181 768T194 734V260Q194 204 223 162T303 95T421 70Q485 70 535 94T613 161T642 260V734Q642 754 655 767T689 781Q710 781 722
768T735 734V260Q735 180 695 118T584 20T421 -16ZM310 871Q286 871 269 888T251 929Q251 952 268 969T310 987Q334 987 351 970T368 929Q368 905 351 888T310 871ZM527 871Q503 871 486 888T469 929Q469 952 486 969T527 987Q551 987 568 970T585 929Q585 905
568 888T527 871Z" />
<glyph unicode="&#xdd;" horiz-adv-x="662" d="M330 0Q311 0 298 13T284 47V287L15 708Q3 726 6 743T21 770T52 781Q67 781 76 775T93 756L353 341H312L574 758Q582 769 592 775T616 781Q633 781 644 770T657 742T648 708L377 287V47Q377 27 364 14T330 0ZM330
866Q311 866 298 879T284 912Q284 931 295 943L399 1047Q412 1060 431 1060Q452 1060 465 1047T478 1013Q478 1004 475 996T465 981L362 878Q350 866 330 866Z" />
<glyph unicode="&#xde;" horiz-adv-x="619" d="M147 0Q127 0 114 13T100 47V734Q100 754 113 767T147 781Q168 781 181 768T194 734V638H347Q422 638 479 609T569 528T601 406Q601 339 569 288T480 209T347 180H194V47Q194 27 181 14T147 0ZM194 262H347Q395 262
432 280T490 332T511 406Q511 450 490 484T432 537T347 557H194V262Z" />
<glyph unicode="&#xdf;" horiz-adv-x="547" d="M89 0Q70 0 57 13T43 46V578Q43 635 71 680T148 752T258 778Q316 778 360 755T428 690T453 598Q453 564 441 540T411 498T382 461T369 419Q369 397 383 378T419 340T462 297T499 245T514 176Q514 125 489 85T420
21T317 -2Q284 -2 249 11T191 45T168 91Q168 111 178 121T208 131Q224 131 233 124T252 107T278 90T325 82Q372 82 397 107T423 176Q423 206 409 229T375 273T334 314T299 359T285 417Q285 451 298 472T327 509T357 545T370 598Q370 644 339 669T256 695Q206 695
172 662T137 576V46Q137 26 124 13T89 0Z" />
<glyph unicode="&#xe0;" horiz-adv-x="676" d="M323 -4Q248 -4 189 32T96 131T62 273Q62 353 98 415T197 514T338 551Q417 551 479 515T577 415T615 273L579 264Q579 188 545 127T454 31T323 -4ZM338 78Q392 78 434 103T500 173T525 273Q525 329 501 373T434 443T338
469Q286 469 243 444T176 374T151 273Q151 218 175 174T243 104T338 78ZM568 -1Q548 -1 535 12T522 45V205L541 301L615 273V45Q615 25 602 12T568 -1ZM336 634Q317 634 305 647L201 750Q189 762 189 782Q189 802 202 815T234 829Q254 829 268 815L371 711Q383
700 383 681Q383 661 370 648T336 634Z" />
<glyph unicode="&#xe1;" horiz-adv-x="676" d="M323 -4Q248 -4 189 32T96 131T62 273Q62 353 98 415T197 514T338 551Q417 551 479 515T577 415T615 273L579 264Q579 188 545 127T454 31T323 -4ZM338 78Q392 78 434 103T500 173T525 273Q525 329 501 373T434 443T338
469Q286 469 243 444T176 374T151 273Q151 218 175 174T243 104T338 78ZM568 -1Q548 -1 535 12T522 45V205L541 301L615 273V45Q615 25 602 12T568 -1ZM338 632Q319 632 306 645T292 678Q292 697 303 709L407 813Q420 826 439 826Q460 826 473 813T486 779Q486
770 483 762T473 747L370 644Q358 632 338 632Z" />
<glyph unicode="&#xe2;" horiz-adv-x="676" d="M323 -4Q248 -4 189 32T96 131T62 273Q62 353 98 415T197 514T338 551Q417 551 479 515T577 415T615 273L579 264Q579 188 545 127T454 31T323 -4ZM338 78Q392 78 434 103T500 173T525 273Q525 329 501 373T434 443T338
469Q286 469 243 444T176 374T151 273Q151 218 175 174T243 104T338 78ZM568 -1Q548 -1 535 12T522 45V205L541 301L615 273V45Q615 25 602 12T568 -1ZM225 622Q205 622 192 633T178 661Q178 685 200 701L315 776Q326 783 338 783Q345 783 350 782T362 776L476
701Q498 685 498 661Q498 644 485 633T452 622Q443 622 437 624T422 632L338 691L254 632Q241 622 225 622Z" />
<glyph unicode="&#xe3;" horiz-adv-x="676" d="M323 -4Q248 -4 189 32T96 131T62 273Q62 353 98 415T197 514T338 551Q417 551 479 515T577 415T615 273L579 264Q579 188 545 127T454 31T323 -4ZM338 78Q392 78 434 103T500 173T525 273Q525 329 501 373T434 443T338
469Q286 469 243 444T176 374T151 273Q151 218 175 174T243 104T338 78ZM568 -1Q548 -1 535 12T522 45V205L541 301L615 273V45Q615 25 602 12T568 -1ZM445 624Q412 624 388 635T345 656Q324 668 309 673T282 679Q266 679 253 673T227 649Q216 634 200 628T168
630Q154 637 151 654T159 686Q182 719 215 736T287 754Q319 754 342 743T383 723Q405 710 417 705T443 700Q457 700 468 705T487 718Q500 731 512 736T541 731Q556 723 558 705T548 672Q509 624 445 624Z" />
<glyph unicode="&#xe4;" horiz-adv-x="676" d="M323 -4Q248 -4 189 32T96 131T62 273Q62 353 98 415T197 514T338 551Q417 551 479 515T577 415T615 273L579 264Q579 188 545 127T454 31T323 -4ZM338 78Q392 78 434 103T500 173T525 273Q525 329 501 373T434 443T338
469Q286 469 243 444T176 374T151 273Q151 218 175 174T243 104T338 78ZM568 -1Q548 -1 535 12T522 45V205L541 301L615 273V45Q615 25 602 12T568 -1ZM230 637Q206 637 189 654T171 695Q171 718 188 735T230 753Q254 753 271 736T288 695Q288 671 271 654T230
637ZM447 637Q423 637 406 654T389 695Q389 718 406 735T447 753Q471 753 488 736T505 695Q505 671 488 654T447 637Z" />
<glyph unicode="&#xe5;" horiz-adv-x="676" d="M323 -4Q248 -4 189 32T96 131T62 273Q62 353 98 415T197 514T338 551Q417 551 479 515T577 415T615 273L579 264Q579 188 545 127T454 31T323 -4ZM338 78Q392 78 434 103T500 173T525 273Q525 329 501 373T434 443T338
469Q286 469 243 444T176 374T151 273Q151 218 175 174T243 104T338 78ZM568 -1Q548 -1 535 12T522 45V205L541 301L615 273V45Q615 25 602 12T568 -1ZM338 589Q294 589 265 618T235 692Q235 737 264 766T338 796Q383 796 412 767T442 692Q442 648 413 619T338
589ZM338 640Q361 640 375 655T390 692Q390 715 376 730T338 745Q316 745 301 730T286 692Q286 670 301 655T338 640Z" />
<glyph unicode="&#xe6;" horiz-adv-x="1086" d="M811 -4Q732 -4 670 31T574 129T539 273Q539 355 572 417T663 515T796 551Q873 551 929 517T1015 422T1046 282Q1046 265 1034 254T1003 242H592V316H1005L963 287Q963 340 943 382T885 448T796 472Q739 472 698
446T634 375T612 273Q612 216 637 172T708 101T811 75Q846 75 879 87T933 115Q946 126 962 127T990 117Q1006 102 1006 86T992 58Q959 31 908 14T811 -4ZM323 -4Q248 -4 189 32T96 131T62 273Q62 352 98 415T197 514T338 551Q417 551 479 515T577 415T615 273L579
264Q579 187 546 127T454 31T323 -4ZM338 78Q392 78 434 103T500 173T525 273Q525 329 501 373T434 443T338 469Q286 469 243 444T176 374T151 273Q151 218 175 174T243 104T338 78ZM568 -1Q548 -1 535 12T522 45V205L541 301L615 273V45Q615 25 602 12T568 -1Z"
/>
<glyph unicode="&#xe7;" horiz-adv-x="599" d="M336 -4Q257 -4 195 32T98 131T62 273Q62 354 96 417T191 515T330 551Q389 551 439 528T528 459Q541 445 538 429T517 401Q505 392 489 395T461 412Q408 469 330 469Q277 469 237 444T174 376T151 273Q151 217 174
173T240 104T336 78Q373 78 402 87T454 116Q468 128 483 129T511 120Q526 107 528 91T517 63Q445 -4 336 -4ZM316 -234Q258 -234 221 -210T184 -153Q184 -135 197 -123T228 -110Q239 -110 247 -115T262 -133Q269 -148 283 -156T317 -164Q338 -164 351 -155T365
-128Q365 -109 355 -98T318 -82Q289 -77 278 -63T277 -19L289 14Q295 31 308 41T341 51Q364 51 375 36T377 -1L362 -35Q414 -47 436 -70T459 -130Q459 -156 441 -180T391 -219T316 -234Z" />
<glyph unicode="&#xe8;" horiz-adv-x="618" d="M344 -4Q261 -4 198 31T98 129T62 273Q62 355 96 417T190 515T329 551Q406 551 462 517T548 422T578 282Q578 265 567 254T536 242H125V316H537L496 287Q495 340 475 382T418 448T329 472Q272 472 231 446T167 375T145
273Q145 216 170 172T240 101T344 75Q376 75 410 87T465 115Q479 126 495 126T523 117Q538 103 539 87T525 58Q491 31 441 14T344 -4ZM318 634Q299 634 287 647L183 750Q171 762 171 782Q171 802 184 815T216 829Q236 829 250 815L353 711Q365 700 365 681Q365
661 352 648T318 634Z" />
<glyph unicode="&#xe9;" horiz-adv-x="618" d="M344 -4Q261 -4 198 31T98 129T62 273Q62 355 96 417T190 515T329 551Q406 551 462 517T548 422T578 282Q578 265 567 254T536 242H125V316H537L496 287Q495 340 475 382T418 448T329 472Q272 472 231 446T167 375T145
273Q145 216 170 172T240 101T344 75Q376 75 410 87T465 115Q479 126 495 126T523 117Q538 103 539 87T525 58Q491 31 441 14T344 -4ZM320 632Q301 632 288 645T274 678Q274 697 285 709L389 813Q402 826 421 826Q442 826 455 813T468 779Q468 770 465 762T455
747L352 644Q340 632 320 632Z" />
<glyph unicode="&#xea;" horiz-adv-x="618" d="M344 -4Q261 -4 198 31T98 129T62 273Q62 355 96 417T190 515T329 551Q406 551 462 517T548 422T578 282Q578 265 567 254T536 242H125V316H537L496 287Q495 340 475 382T418 448T329 472Q272 472 231 446T167 375T145
273Q145 216 170 172T240 101T344 75Q376 75 410 87T465 115Q479 126 495 126T523 117Q538 103 539 87T525 58Q491 31 441 14T344 -4ZM207 622Q187 622 174 633T160 661Q160 685 182 701L297 776Q308 783 320 783Q327 783 332 782T344 776L458 701Q480 685 480
661Q480 644 467 633T434 622Q425 622 419 624T404 632L320 691L236 632Q223 622 207 622Z" />
<glyph unicode="&#xeb;" horiz-adv-x="618" d="M344 -4Q261 -4 198 31T98 129T62 273Q62 355 96 417T190 515T329 551Q406 551 462 517T548 422T578 282Q578 265 567 254T536 242H125V316H537L496 287Q495 340 475 382T418 448T329 472Q272 472 231 446T167 375T145
273Q145 216 170 172T240 101T344 75Q376 75 410 87T465 115Q479 126 495 126T523 117Q538 103 539 87T525 58Q491 31 441 14T344 -4ZM212 637Q188 637 171 654T153 695Q153 718 170 735T212 753Q236 753 253 736T270 695Q270 671 253 654T212 637ZM429 637Q405
637 388 654T371 695Q371 718 388 735T429 753Q453 753 470 736T487 695Q487 671 470 654T429 637Z" />
<glyph unicode="&#xec;" horiz-adv-x="297" d="M149 0Q128 0 115 13T102 46V501Q102 522 115 534T149 547Q169 547 182 535T195 501V46Q195 26 182 13T149 0ZM402 634Q383 634 371 647L267 750Q255 762 255 782Q255 802 268 815T300 829Q320 829 334 815L437 711Q449
700 449 681Q449 661 436 648T402 634Z" />
<glyph unicode="&#xed;" horiz-adv-x="297" d="M149 0Q128 0 115 13T102 46V501Q102 522 115 534T149 547Q169 547 182 535T195 501V46Q195 26 182 13T149 0ZM148 632Q129 632 116 645T102 678Q102 697 113 709L217 813Q230 826 249 826Q270 826 283 813T296 779Q296
770 293 762T283 747L180 644Q168 632 148 632Z" />
<glyph unicode="&#xee;" horiz-adv-x="297" d="M47 622Q29 622 17 633T5 661Q5 685 25 701L127 776Q137 783 149 783Q154 783 159 782T170 776L272 701Q292 685 292 661Q292 644 281 633T251 622Q243 622 237 624T224 632L149 691L73 632Q61 622 47 622ZM149 0Q128
0 115 13T102 46V501Q102 522 115 534T149 547Q169 547 182 535T195 501V46Q195 26 182 13T149 0Z" />
<glyph unicode="&#xef;" horiz-adv-x="297" d="M50 664Q26 664 9 681T-9 723Q-9 746 8 763T50 781Q74 781 91 764T108 723Q108 698 91 681T50 664ZM247 664Q223 664 206 681T189 723Q189 746 206 763T247 781Q271 781 288 764T305 723Q305 698 288 681T247 664ZM149
0Q128 0 115 13T102 46V501Q102 522 115 534T149 547Q169 547 182 535T195 501V46Q195 26 182 13T149 0Z" />
<glyph unicode="&#xf0;" horiz-adv-x="671" d="M328 -4Q250 -4 190 29T96 121T62 256Q62 332 94 390T182 481T312 514Q383 514 438 482T524 393T555 262H601Q601 185 566 125T469 30T328 -4ZM328 78Q382 78 423 100T488 163T512 256Q512 307 489 346T424 408T328
431Q276 431 236 409T174 347T151 256Q151 203 173 163T236 101T328 78ZM531 261L529 352Q528 434 513 491T464 590T373 662T231 721Q207 729 198 741T195 771Q201 788 217 790T251 786Q351 750 418 711T525 623T582 510T600 362L601 261H531ZM253 606Q241 612
237 621T240 645L333 819Q341 833 351 835T373 829Q387 821 390 811T388 790L294 615Q288 604 277 601T253 606Z" />
<glyph unicode="&#xf1;" horiz-adv-x="680" d="M555 -1Q535 -1 522 12T508 45V297Q508 356 486 393T427 449T342 468Q297 468 261 450T204 402T182 333H122Q123 396 154 445T238 523T357 552Q427 552 482 523T569 436T601 297V45Q601 26 588 13T555 -1ZM136 -1Q116
-1 103 12T90 45V501Q90 522 103 534T136 547Q157 547 169 535T182 501V45Q182 25 170 12T136 -1ZM446 624Q413 624 389 635T346 656Q325 668 310 673T283 679Q267 679 254 673T228 649Q217 634 201 628T169 630Q155 637 152 654T160 686Q183 719 216 736T288 754Q320
754 343 743T384 723Q406 710 418 705T444 700Q458 700 469 705T488 718Q501 731 513 736T542 731Q557 723 559 705T549 672Q510 624 446 624Z" />
<glyph unicode="&#xf2;" horiz-adv-x="676" d="M338 -4Q258 -4 196 31T98 129T62 273Q62 355 97 417T195 515T338 551Q418 551 480 516T578 418T615 273Q615 192 579 130T481 32T338 -4ZM338 78Q393 78 435 103T501 172T525 273Q525 330 501 374T435 444T338 469Q284
469 242 444T175 375T151 273Q151 216 175 172T241 103T338 78ZM336 634Q317 634 305 647L201 750Q189 762 189 782Q189 802 202 815T234 829Q254 829 268 815L371 711Q383 700 383 681Q383 661 370 648T336 634Z" />
<glyph unicode="&#xf3;" horiz-adv-x="676" d="M338 -4Q258 -4 196 31T98 129T62 273Q62 355 97 417T195 515T338 551Q418 551 480 516T578 418T615 273Q615 192 579 130T481 32T338 -4ZM338 78Q393 78 435 103T501 172T525 273Q525 330 501 374T435 444T338 469Q284
469 242 444T175 375T151 273Q151 216 175 172T241 103T338 78ZM338 632Q319 632 306 645T292 678Q292 697 303 709L407 813Q420 826 439 826Q460 826 473 813T486 779Q486 770 483 762T473 747L370 644Q358 632 338 632Z" />
<glyph unicode="&#xf4;" horiz-adv-x="676" d="M338 -4Q258 -4 196 31T98 129T62 273Q62 355 97 417T195 515T338 551Q418 551 480 516T578 418T615 273Q615 192 579 130T481 32T338 -4ZM338 78Q393 78 435 103T501 172T525 273Q525 330 501 374T435 444T338 469Q284
469 242 444T175 375T151 273Q151 216 175 172T241 103T338 78ZM225 622Q205 622 192 633T178 661Q178 685 200 701L315 776Q326 783 338 783Q345 783 350 782T362 776L476 701Q498 685 498 661Q498 644 485 633T452 622Q443 622 437 624T422 632L338 691L254 632Q241
622 225 622Z" />
<glyph unicode="&#xf5;" horiz-adv-x="676" d="M338 -4Q258 -4 196 31T98 129T62 273Q62 355 97 417T195 515T338 551Q418 551 480 516T578 418T615 273Q615 192 579 130T481 32T338 -4ZM338 78Q393 78 435 103T501 172T525 273Q525 330 501 374T435 444T338 469Q284
469 242 444T175 375T151 273Q151 216 175 172T241 103T338 78ZM445 624Q412 624 388 635T345 656Q324 668 309 673T282 679Q266 679 253 673T227 649Q216 634 200 628T168 630Q154 637 151 654T159 686Q182 719 215 736T287 754Q319 754 342 743T383 723Q405 710
417 705T443 700Q457 700 468 705T487 718Q500 731 512 736T541 731Q556 723 558 705T548 672Q509 624 445 624Z" />
<glyph unicode="&#xf6;" horiz-adv-x="676" d="M338 -4Q258 -4 196 31T98 129T62 273Q62 355 97 417T195 515T338 551Q418 551 480 516T578 418T615 273Q615 192 579 130T481 32T338 -4ZM338 78Q393 78 435 103T501 172T525 273Q525 330 501 374T435 444T338 469Q284
469 242 444T175 375T151 273Q151 216 175 172T241 103T338 78ZM230 637Q206 637 189 654T171 695Q171 718 188 735T230 753Q254 753 271 736T288 695Q288 671 271 654T230 637ZM447 637Q423 637 406 654T389 695Q389 718 406 735T447 753Q471 753 488 736T505
695Q505 671 488 654T447 637Z" />
<glyph unicode="&#xf7;" horiz-adv-x="469" d="M84 303Q64 303 51 316T38 350Q38 369 51 382T84 395H387Q407 395 420 382T434 350Q434 329 421 316T387 303H84ZM235 151Q212 151 196 167T179 208Q179 231 195 247T235 263Q259 263 275 247T291 208Q291 184 275
168T235 151ZM235 435Q212 435 196 451T179 491Q179 515 195 531T235 547Q259 547 275 531T291 491Q291 468 275 452T235 435Z" />
<glyph unicode="&#xf8;" horiz-adv-x="704" d="M93 -20Q73 -20 65 -2T71 32L145 106L182 134L497 449L526 477L590 541Q600 551 613 551Q628 551 635 542T643 520T635 499L566 430L540 408L223 92L194 68L115 -11Q106 -20 93 -20ZM357 -8Q277 -8 215 27T116 126T80
269Q80 351 116 413T214 512T357 548Q437 548 499 512T597 414T633 269Q633 189 598 126T500 28T357 -8ZM357 74Q412 74 454 99T520 168T544 269Q544 326 520 370T454 440T357 465Q303 465 261 440T194 371T170 269Q170 212 194 168T260 99T357 74Z" />
<glyph unicode="&#xf9;" horiz-adv-x="680" d="M323 -5Q253 -5 198 24T111 111T79 250V502Q79 521 92 534T125 548Q145 548 158 535T172 502V250Q172 192 194 154T253 98T338 79Q384 79 419 97T476 145T498 214H558Q556 152 526 102T442 24T323 -5ZM544 0Q524
0 511 13T498 46V502Q498 522 511 535T544 548Q564 548 577 535T590 502V46Q590 26 577 13T544 0ZM338 634Q319 634 307 647L203 750Q191 762 191 782Q191 802 204 815T236 829Q256 829 270 815L373 711Q385 700 385 681Q385 661 372 648T338 634Z" />
<glyph unicode="&#xfa;" horiz-adv-x="680" d="M323 -5Q253 -5 198 24T111 111T79 250V502Q79 521 92 534T125 548Q145 548 158 535T172 502V250Q172 192 194 154T253 98T338 79Q384 79 419 97T476 145T498 214H558Q556 152 526 102T442 24T323 -5ZM544 0Q524
0 511 13T498 46V502Q498 522 511 535T544 548Q564 548 577 535T590 502V46Q590 26 577 13T544 0ZM340 632Q321 632 308 645T294 678Q294 697 305 709L409 813Q422 826 441 826Q462 826 475 813T488 779Q488 770 485 762T475 747L372 644Q360 632 340 632Z" />
<glyph unicode="&#xfb;" horiz-adv-x="680" d="M323 -5Q253 -5 198 24T111 111T79 250V502Q79 521 92 534T125 548Q145 548 158 535T172 502V250Q172 192 194 154T253 98T338 79Q384 79 419 97T476 145T498 214H558Q556 152 526 102T442 24T323 -5ZM544 0Q524
0 511 13T498 46V502Q498 522 511 535T544 548Q564 548 577 535T590 502V46Q590 26 577 13T544 0ZM227 622Q207 622 194 633T180 661Q180 685 202 701L317 776Q328 783 340 783Q347 783 352 782T364 776L478 701Q500 685 500 661Q500 644 487 633T454 622Q445 622
439 624T424 632L340 691L256 632Q243 622 227 622Z" />
<glyph unicode="&#xfc;" horiz-adv-x="680" d="M323 -5Q253 -5 198 24T111 111T79 250V502Q79 521 92 534T125 548Q145 548 158 535T172 502V250Q172 192 194 154T253 98T338 79Q384 79 419 97T476 145T498 214H558Q556 152 526 102T442 24T323 -5ZM544 0Q524
0 511 13T498 46V502Q498 522 511 535T544 548Q564 548 577 535T590 502V46Q590 26 577 13T544 0ZM231 637Q207 637 190 654T172 695Q172 718 189 735T231 753Q255 753 272 736T289 695Q289 671 272 654T231 637ZM448 637Q424 637 407 654T390 695Q390 718 407
735T448 753Q472 753 489 736T506 695Q506 671 489 654T448 637Z" />
<glyph unicode="&#xfd;" horiz-adv-x="542" d="M186 -239Q177 -239 165 -234Q125 -216 143 -177L455 521Q473 559 512 543Q553 526 535 486L222 -211Q210 -239 186 -239ZM302 20Q284 12 269 18T245 41L18 487Q9 504 15 520T40 543Q57 551 72 546T96 522L315 77Q325
59 322 44T302 20ZM276 632Q257 632 244 645T230 678Q230 697 241 709L345 813Q358 826 377 826Q398 826 411 813T424 779Q424 770 421 762T411 747L308 644Q296 632 276 632Z" />
<glyph unicode="&#xfe;" horiz-adv-x="704" d="M136 -234Q116 -234 103 -221T90 -188V735Q90 756 103 768T136 781Q157 781 170 769T182 735L173 290L140 283Q140 351 161 401T217 484T295 534T382 551Q456 551 515 516T609 418T643 273Q643 192 610 129T517 31T382
-4Q316 -4 265 26T182 109V-188Q183 -208 170 -221T136 -234ZM366 78Q421 78 463 103T529 172T553 273Q553 330 529 374T463 444T366 469Q311 469 269 444T204 375T180 273Q180 216 203 172T269 103T366 78Z" />
<glyph unicode="&#xff;" horiz-adv-x="542" d="M186 -239Q177 -239 165 -234Q125 -216 143 -177L455 521Q473 559 512 543Q553 526 535 486L222 -211Q210 -239 186 -239ZM302 20Q284 12 269 18T245 41L18 487Q9 504 15 520T40 543Q57 551 72 546T96 522L315 77Q325
59 322 44T302 20ZM168 637Q144 637 127 654T109 695Q109 718 126 735T168 753Q192 753 209 736T226 695Q226 671 209 654T168 637ZM385 637Q361 637 344 654T327 695Q327 718 344 735T385 753Q409 753 426 736T443 695Q443 671 426 654T385 637Z" />
<glyph unicode="&#x2013;" horiz-adv-x="391" d="M-2 228Q-22 228 -35 240T-48 273Q-48 294 -35 306T-2 319H393Q412 319 425 307T439 273Q439 253 426 241T393 228H-2Z" />
<glyph unicode="&#x2014;" horiz-adv-x="938" d="M-3 228Q-23 228 -36 240T-49 273Q-49 294 -36 306T-3 319H942Q962 319 975 307T988 273Q988 253 975 241T942 228H-3Z" />
<glyph unicode="&#x2018;" horiz-adv-x="198" d="M157 829Q173 829 181 816T182 788Q165 750 162 724T161 680T168 645T173 607Q173 582 156 566T116 549Q87 549 71 573T55 636Q55 661 65 693T91 757T124 808T157 829Z" />
<glyph unicode="&#x2019;" horiz-adv-x="180" d="M28 513Q13 513 5 526T3 555Q20 593 23 618T24 662T17 697T12 735Q12 761 28 777T69 793Q98 793 114 769T130 706Q130 681 120 649T94 585T61 534T28 513Z" />
<glyph unicode="&#x201a;" horiz-adv-x="234" d="M77 -179Q62 -179 54 -166T52 -137Q69 -99 72 -74T73 -30T66 5T61 43Q61 69 77 85T118 101Q147 101 163 77T179 14Q179 -11 169 -43T143 -107T110 -158T77 -179Z" />
<glyph unicode="&#x201c;" horiz-adv-x="288" d="M109 829Q125 829 133 816T134 788Q118 750 114 724T113 680T120 645T125 607Q125 582 109 566T68 549Q39 549 23 573T7 636Q7 661 17 693T43 757T76 808T109 829ZM260 829Q275 829 283 816T285 788Q268 750 265
724T264 680T271 645T276 607Q276 582 259 566T219 549Q190 549 174 573T157 636Q157 661 167 693T193 757T227 808T260 829Z" />
<glyph unicode="&#x201d;" horiz-adv-x="285" d="M216 549Q193 549 176 565T159 607Q159 628 163 644T171 679T171 724T151 788Q144 803 152 816T175 829Q191 829 208 809T241 757T267 694T278 636Q278 598 262 574T216 549ZM69 549Q45 549 29 565T12 607Q12 628
16 644T23 679T23 724T3 788Q-4 803 4 816T27 829Q43 829 60 809T93 757T119 694T130 636Q130 598 114 574T69 549Z" />
<glyph unicode="&#x201e;" horiz-adv-x="304" d="M315 -179Q300 -179 292 -166T290 -137Q307 -99 310 -74T311 -30T304 5T299 43Q299 69 315 85T356 101Q385 101 401 77T417 14Q417 -11 407 -43T381 -107T348 -158T315 -179ZM202 -179Q187 -179 179 -166T177 -137Q194
-99 197 -74T198 -30T191 5T186 43Q186 69 202 85T243 101Q272 101 288 77T304 14Q304 -11 294 -43T268 -107T235 -158T202 -179Z" />
<glyph unicode="&#x2022;" horiz-adv-x="391" d="M197 265Q163 265 136 282T92 326T75 387Q75 421 92 449T137 493T197 509Q230 509 257 492T302 448T319 387Q319 355 303 327T259 282T197 265Z" />
<glyph unicode="&#x2039;" horiz-adv-x="273" d="M197 0Q184 0 173 7T155 28L44 249Q41 256 40 261T38 273Q38 284 43 295L155 518Q169 546 197 546Q218 546 231 533T244 501Q244 488 240 481L137 273L240 65Q244 58 244 46Q244 27 231 14T197 0Z" />
<glyph unicode="&#x203a;" horiz-adv-x="273" d="M84 0Q65 0 52 13T39 46Q39 57 42 65L145 273L42 481Q41 485 40 489T38 501Q38 520 51 533T84 546Q114 546 127 518L238 295Q241 289 242 284T244 273Q244 261 237 249L127 28Q120 14 109 7T84 0Z" />
</font>
</defs>
</svg>
